  0
SECTION
  2
HEADER
  9
$ACADVER
  1
AC1027
  9
$ACADMAINTVER
 70
     8
  9
$DWGCODEPAGE
  3
ANSI_1252
  9
$REQUIREDVERSIONS
160
                 0
  9
$INSBASE
 10
0.0
 20
0.0
 30
0.0
  9
$EXTMIN
 10
1.000000000000000E+20
 20
1.000000000000000E+20
 30
1.000000000000000E+20
  9
$EXTMAX
 10
-1.000000000000000E+20
 20
-1.000000000000000E+20
 30
-1.000000000000000E+20
  9
$LIMMIN
 10
0.0
 20
0.0
  9
$LIMMAX
 10
420.0
 20
297.0
  9
$ORTHOMODE
 70
     0
  9
$REGENMODE
 70
     1
  9
$FILLMODE
 70
     1
  9
$QTEXTMODE
 70
     0
  9
$MIRRTEXT
 70
     1
  9
$LTSCALE
 40
1.0
  9
$ATTMODE
 70
     1
  9
$TEXTSIZE
 40
2.5
  9
$TRACEWID
 40
1.0
  9
$TEXTSTYLE
  7
Standard
  9
$CLAYER
  8
0
  9
$CELTYPE
  6
ByLayer
  9
$CECOLOR
 62
   178
  9
$CELTSCALE
 40
1.0
  9
$DISPSILH
 70
     0
  9
$DIMSCALE
 40
1.0
  9
$DIMASZ
 40
2.5
  9
$DIMEXO
 40
0.625
  9
$DIMDLI
 40
3.75
  9
$DIMRND
 40
0.0
  9
$DIMDLE
 40
0.0
  9
$DIMEXE
 40
1.25
  9
$DIMTP
 40
0.0
  9
$DIMTM
 40
0.0
  9
$DIMTXT
 40
2.5
  9
$DIMCEN
 40
2.5
  9
$DIMTSZ
 40
0.0
  9
$DIMTOL
 70
     0
  9
$DIMLIM
 70
     0
  9
$DIMTIH
 70
     1
  9
$DIMTOH
 70
     1
  9
$DIMSE1
 70
     0
  9
$DIMSE2
 70
     0
  9
$DIMTAD
 70
     1
  9
$DIMZIN
 70
     8
  9
$DIMBLK
  1

  9
$DIMASO
 70
     1
  9
$DIMSHO
 70
     1
  9
$DIMPOST
  1

  9
$DIMAPOST
  1

  9
$DIMALT
 70
     0
  9
$DIMALTD
 70
     3
  9
$DIMALTF
 40
0.03937007874016
  9
$DIMLFAC
 40
1.0
  9
$DIMTOFL
 70
     0
  9
$DIMTVP
 40
0.0
  9
$DIMTIX
 70
     0
  9
$DIMSOXD
 70
     0
  9
$DIMSAH
 70
     0
  9
$DIMBLK1
  1

  9
$DIMBLK2
  1

  9
$DIMSTYLE
  2
Standard
  9
$DIMCLRD
 70
   178
  9
$DIMCLRE
 70
   178
  9
$DIMCLRT
 70
   178
  9
$DIMTFAC
 40
1.0
  9
$DIMGAP
 40
0.625
  9
$DIMJUST
 70
     0
  9
$DIMSD1
 70
     0
  9
$DIMSD2
 70
     0
  9
$DIMTOLJ
 70
     0
  9
$DIMTZIN
 70
     8
  9
$DIMALTZ
 70
     0
  9
$DIMALTTZ
 70
     0
  9
$DIMUPT
 70
     0
  9
$DIMDEC
 70
     2
  9
$DIMTDEC
 70
     2
  9
$DIMALTU
 70
     2
  9
$DIMALTTD
 70
     3
  9
$DIMTXSTY
  7
Standard
  9
$DIMAUNIT
 70
     0
  9
$DIMADEC
 70
     0
  9
$DIMALTRND
 40
0.0
  9
$DIMAZIN
 70
     0
  9
$DIMDSEP
 70
    46
  9
$DIMATFIT
 70
     3
  9
$DIMFRAC
 70
     0
  9
$DIMLDRBLK
  1

  9
$DIMLUNIT
 70
     2
  9
$DIMLWD
 70
    -2
  9
$DIMLWE
 70
    -2
  9
$DIMTMOVE
 70
     0
  9
$DIMFXL
 40
1.0
  9
$DIMFXLON
 70
     0
  9
$DIMJOGANG
 40
0.7853981633974483
  9
$DIMTFILL
 70
     0
  9
$DIMTFILLCLR
 70
     0
  9
$DIMARCSYM
 70
     0
  9
$DIMLTYPE
  6

  9
$DIMLTEX1
  6

  9
$DIMLTEX2
  6

  9
$DIMTXTDIRECTION
 70
     0
  9
$LUNITS
 70
     2
  9
$LUPREC
 70
     4
  9
$SKETCHINC
 40
1.0
  9
$FILLETRAD
 40
10.0
  9
$AUNITS
 70
     0
  9
$AUPREC
 70
     0
  9
$MENU
  1
.
  9
$ELEVATION
 40
0.0
  9
$PELEVATION
 40
0.0
  9
$THICKNESS
 40
0.0
  9
$LIMCHECK
 70
     0
  9
$CHAMFERA
 40
10.0
  9
$CHAMFERB
 40
10.0
  9
$CHAMFERC
 40
20.0
  9
$CHAMFERD
 40
0.0
  9
$SKPOLY
 70
     0
  9
$TDCREATE
 40
2457357.664652778
  9
$TDUCREATE
 40
2457357.622986111
  9
$TDUPDATE
 40
2457357.664664352
  9
$TDUUPDATE
 40
2457357.622997685
  9
$TDINDWG
 40
0.0000000116
  9
$TDUSRTIMER
 40
0.0000000116
  9
$USRTIMER
 70
     1
  9
$ANGBASE
 50
0.0
  9
$ANGDIR
 70
     0
  9
$PDMODE
 70
     0
  9
$PDSIZE
 40
0.0
  9
$PLINEWID
 40
0.0
  9
$SPLFRAME
 70
     0
  9
$SPLINETYPE
 70
     6
  9
$SPLINESEGS
 70
     8
  9
$HANDSEED
  5
1B8B
  9
$SURFTAB1
 70
     6
  9
$SURFTAB2
 70
     6
  9
$SURFTYPE
 70
     6
  9
$SURFU
 70
     6
  9
$SURFV
 70
     6
  9
$UCSBASE
  2

  9
$UCSNAME
  2

  9
$UCSORG
 10
0.0
 20
0.0
 30
0.0
  9
$UCSXDIR
 10
1.0
 20
0.0
 30
0.0
  9
$UCSYDIR
 10
0.0
 20
1.0
 30
0.0
  9
$UCSORTHOREF
  2

  9
$UCSORTHOVIEW
 70
     0
  9
$UCSORGTOP
 10
0.0
 20
0.0
 30
0.0
  9
$UCSORGBOTTOM
 10
0.0
 20
0.0
 30
0.0
  9
$UCSORGLEFT
 10
0.0
 20
0.0
 30
0.0
  9
$UCSORGRIGHT
 10
0.0
 20
0.0
 30
0.0
  9
$UCSORGFRONT
 10
0.0
 20
0.0
 30
0.0
  9
$UCSORGBACK
 10
0.0
 20
0.0
 30
0.0
  9
$PUCSBASE
  2

  9
$PUCSNAME
  2

  9
$PUCSORG
 10
0.0
 20
0.0
 30
0.0
  9
$PUCSXDIR
 10
1.0
 20
0.0
 30
0.0
  9
$PUCSYDIR
 10
0.0
 20
1.0
 30
0.0
  9
$PUCSORTHOREF
  2

  9
$PUCSORTHOVIEW
 70
     0
  9
$PUCSORGTOP
 10
0.0
 20
0.0
 30
0.0
  9
$PUCSORGBOTTOM
 10
0.0
 20
0.0
 30
0.0
  9
$PUCSORGLEFT
 10
0.0
 20
0.0
 30
0.0
  9
$PUCSORGRIGHT
 10
0.0
 20
0.0
 30
0.0
  9
$PUCSORGFRONT
 10
0.0
 20
0.0
 30
0.0
  9
$PUCSORGBACK
 10
0.0
 20
0.0
 30
0.0
  9
$USERI1
 70
     0
  9
$USERI2
 70
     0
  9
$USERI3
 70
     0
  9
$USERI4
 70
     0
  9
$USERI5
 70
     0
  9
$USERR1
 40
0.0
  9
$USERR2
 40
0.0
  9
$USERR3
 40
0.0
  9
$USERR4
 40
0.0
  9
$USERR5
 40
0.0
  9
$WORLDVIEW
 70
     1
  9
$SHADEDGE
 70
     3
  9
$SHADEDIF
 70
    70
  9
$TILEMODE
 70
     1
  9
$MAXACTVP
 70
     2
  9
$PINSBASE
 10
0.0
 20
0.0
 30
0.0
  9
$PLIMCHECK
 70
     0
  9
$PEXTMIN
 10
1.000000000000000E+20
 20
1.000000000000000E+20
 30
1.000000000000000E+20
  9
$PEXTMAX
 10
-1.000000000000000E+20
 20
-1.000000000000000E+20
 30
-1.000000000000000E+20
  9
$PLIMMIN
 10
0.0
 20
0.0
  9
$PLIMMAX
 10
420.0
 20
297.0
  9
$UNITMODE
 70
     0
  9
$VISRETAIN
 70
     1
  9
$PLINEGEN
 70
     0
  9
$PSLTSCALE
 70
     1
  9
$TREEDEPTH
 70
  3020
  9
$CMLSTYLE
  2
Standard
  9
$CMLJUST
 70
     0
  9
$CMLSCALE
 40
20.0
  9
$PROXYGRAPHICS
 70
     1
  9
$MEASUREMENT
 70
     1
  9
$CELWEIGHT
370
    -1
  9
$ENDCAPS
280
     0
  9
$JOINSTYLE
280
     0
  9
$LWDISPLAY
290
     0
  9
$INSUNITS
 70
     0
  9
$HYPERLINKBASE
  1

  9
$STYLESHEET
  1

  9
$XEDIT
290
     1
  9
$CEPSNTYPE
380
     0
  9
$PSTYLEMODE
290
     1
  9
$FINGERPRINTGUID
  2
{0814F188-4B81-F911-A1AD-3066F9D72388}
  9
$VERSIONGUID
  2
{FAEB1C32-E019-11D5-929B-00C0DF256EC4}
  9
$EXTNAMES
290
     1
  9
$PSVPSCALE
 40
0.0
  9
$OLESTARTUP
290
     0
  9
$SORTENTS
280
   127
  9
$INDEXCTL
280
     0
  9
$HIDETEXT
280
     1
  9
$XCLIPFRAME
280
     2
  9
$HALOGAP
280
     0
  9
$OBSCOLOR
 70
   257
  9
$OBSLTYPE
280
     0
  9
$INTERSECTIONDISPLAY
280
     0
  9
$INTERSECTIONCOLOR
 70
   257
  9
$DIMASSOC
280
     2
  9
$PROJECTNAME
  1

  9
$CAMERADISPLAY
290
     0
  9
$LENSLENGTH
 40
50.0
  9
$CAMERAHEIGHT
 40
0.0
  9
$STEPSPERSEC
 40
2.0
  9
$STEPSIZE
 40
6.0
  9
$3DDWFPREC
 40
2.0
  9
$PSOLWIDTH
 40
0.25
  9
$PSOLHEIGHT
 40
4.0
  9
$LOFTANG1
 40
1.570796326794897
  9
$LOFTANG2
 40
1.570796326794897
  9
$LOFTMAG1
 40
0.0
  9
$LOFTMAG2
 40
0.0
  9
$LOFTPARAM
 70
     7
  9
$LOFTNORMALS
280
     1
  9
$LATITUDE
 40
37.795
  9
$LONGITUDE
 40
-122.394
  9
$NORTHDIRECTION
 40
0.0
  9
$TIMEZONE
 70
 -8000
  9
$LIGHTGLYPHDISPLAY
280
     1
  9
$TILEMODELIGHTSYNCH
280
     1
  9
$CMATERIAL
347
1907
  9
$SOLIDHIST
280
     0
  9
$SHOWHIST
280
     1
  9
$DWFFRAME
280
     2
  9
$DGNFRAME
280
     2
  9
$REALWORLDSCALE
290
     1
  9
$INTERFERECOLOR
 62
   256
  9
$CSHADOW
280
     0
  9
$SHADOWPLANELOCATION
 40
0.0
  0
ENDSEC
  0
SECTION
  2
CLASSES
  0
CLASS
  1
ACDBDICTIONARYWDFLT
  2
AcDbDictionaryWithDefault
  3
ObjectDBX Classes
 90
        0
 91
        4
280
     0
281
     0
  0
CLASS
  1
VISUALSTYLE
  2
AcDbVisualStyle
  3
ObjectDBX Classes
 90
     4095
 91
        4
280
     0
281
     0
  0
CLASS
  1
MATERIAL
  2
AcDbMaterial
  3
ObjectDBX Classes
 90
     1153
 91
        4
280
     0
281
     0
  0
CLASS
  1
SCALE
  2
AcDbScale
  3
ObjectDBX Classes
 90
     1153
 91
        4
280
     0
281
     0
  0
CLASS
  1
TABLESTYLE
  2
AcDbTableStyle
  3
ObjectDBX Classes
 90
     4095
 91
        4
280
     0
281
     0
  0
CLASS
  1
MLEADERSTYLE
  2
AcDbMLeaderStyle
  3
ACDB_MLEADERSTYLE_CLASS
 90
     4095
 91
        4
280
     0
281
     0
  0
CLASS
  1
SUN
  2
AcDbSun
  3
SCENEOE
 90
     1153
 91
        4
280
     0
281
     0
  0
CLASS
  1
DICTIONARYVAR
  2
AcDbDictionaryVar
  3
ObjectDBX Classes
 90
        0
 91
        4
280
     0
281
     0
  0
CLASS
  1
CELLSTYLEMAP
  2
AcDbCellStyleMap
  3
ObjectDBX Classes
 90
     1152
 91
        4
280
     0
281
     0
  0
ENDSEC
  0
SECTION
  2
TABLES
  0
TABLE
  2
VPORT
  5
18CC
330
0
100
AcDbSymbolTable
 70
     1
  0
VPORT
  5
18EC
330
18CC
100
AcDbSymbolTableRecord
100
AcDbViewportTableRecord
  2
*Active
 70
     0
 10
0.0
 20
0.0
 11
1.0
 21
1.0
 12
10.42990654205607
 22
4.5
 13
0.0
 23
0.0
 14
0.5
 24
0.5
 15
0.5
 25
0.5
 16
0.0
 26
0.0
 36
1.0
 17
0.0
 27
0.0
 37
0.0
 40
9.0
 41
1.972972972850329
 42
50.0
 43
0.0
 44
0.0
 50
0.0
 51
0.0
 71
     0
 72
   100
 73
     1
 74
     3
 75
     0
 76
     0
 77
     0
 78
     0
281
     0
 65
     1
110
0.0
120
0.0
130
0.0
111
1.0
121
0.0
131
0.0
112
0.0
122
1.0
132
0.0
 79
     0
146
0.0
 60
     3
 61
     5
292
     1
282
     1
141
0.0
142
0.0
 63
   250
361
1930
  0
ENDTAB
  0
TABLE
  2
LTYPE
  5
18C9
330
0
100
AcDbSymbolTable
 70
    49
  0
LTYPE
  5
18D7
330
18C9
100
AcDbSymbolTableRecord
100
AcDbLinetypeTableRecord
  2
ByBlock
 70
     0
  3

 72
    65
 73
     0
 40
0.0
  0
LTYPE
  5
18D8
330
18C9
100
AcDbSymbolTableRecord
100
AcDbLinetypeTableRecord
  2
ByLayer
 70
     0
  3

 72
    65
 73
     0
 40
0.0
  0
LTYPE
  5
18D9
330
18C9
100
AcDbSymbolTableRecord
100
AcDbLinetypeTableRecord
  2
Continuous
 70
     0
  3
Solid line
 72
    65
 73
     0
 40
0.0
  0
LTYPE
  5
1964
330
18C9
100
AcDbSymbolTableRecord
100
AcDbLinetypeTableRecord
  2
ACAD_ISO02W100
 70
     0
  3
ISO dash __ __ __ __ __ __ __ __ __ __ __ __ __
 72
    65
 73
     2
 40
15.0
 49
12.0
 74
     0
 49
-3.0
 74
     0
  0
LTYPE
  5
1965
330
18C9
100
AcDbSymbolTableRecord
100
AcDbLinetypeTableRecord
  2
ACAD_ISO03W100
 70
     0
  3
ISO dash space __    __    __    __    __    __
 72
    65
 73
     2
 40
30.0
 49
12.0
 74
     0
 49
-18.0
 74
     0
  0
LTYPE
  5
1966
330
18C9
100
AcDbSymbolTableRecord
100
AcDbLinetypeTableRecord
  2
ACAD_ISO04W100
 70
     0
  3
ISO long-dash dot ____ . ____ . ____ . ____ . _
 72
    65
 73
     4
 40
30.0
 49
24.0
 74
     0
 49
-3.0
 74
     0
 49
0.0
 74
     0
 49
-3.0
 74
     0
  0
LTYPE
  5
1967
330
18C9
100
AcDbSymbolTableRecord
100
AcDbLinetypeTableRecord
  2
ACAD_ISO05W100
 70
     0
  3
ISO long-dash double-dot ____ .. ____ .. ____ . 
 72
    65
 73
     6
 40
33.0
 49
24.0
 74
     0
 49
-3.0
 74
     0
 49
0.0
 74
     0
 49
-3.0
 74
     0
 49
0.0
 74
     0
 49
-3.0
 74
     0
  0
LTYPE
  5
1968
330
18C9
100
AcDbSymbolTableRecord
100
AcDbLinetypeTableRecord
  2
ACAD_ISO06W100
 70
     0
  3
ISO long-dash triple-dot ____ ... ____ ... ____
 72
    65
 73
     8
 40
36.0
 49
24.0
 74
     0
 49
-3.0
 74
     0
 49
0.0
 74
     0
 49
-3.0
 74
     0
 49
0.0
 74
     0
 49
-3.0
 74
     0
 49
0.0
 74
     0
 49
-3.0
 74
     0
  0
LTYPE
  5
1969
330
18C9
100
AcDbSymbolTableRecord
100
AcDbLinetypeTableRecord
  2
ACAD_ISO07W100
 70
     0
  3
ISO dot . . . . . . . . . . . . . . . . . . . . 
 72
    65
 73
     2
 40
3.0
 49
0.0
 74
     0
 49
-3.0
 74
     0
  0
LTYPE
  5
196A
330
18C9
100
AcDbSymbolTableRecord
100
AcDbLinetypeTableRecord
  2
ACAD_ISO08W100
 70
     0
  3
ISO long-dash short-dash ____ __ ____ __ ____ _
 72
    65
 73
     4
 40
36.0
 49
24.0
 74
     0
 49
-3.0
 74
     0
 49
6.0
 74
     0
 49
-3.0
 74
     0
  0
LTYPE
  5
196B
330
18C9
100
AcDbSymbolTableRecord
100
AcDbLinetypeTableRecord
  2
ACAD_ISO09W100
 70
     0
  3
ISO long-dash double-short-dash ____ __ __ ____
 72
    65
 73
     6
 40
45.0
 49
24.0
 74
     0
 49
-3.0
 74
     0
 49
6.0
 74
     0
 49
-3.0
 74
     0
 49
6.0
 74
     0
 49
-3.0
 74
     0
  0
LTYPE
  5
196C
330
18C9
100
AcDbSymbolTableRecord
100
AcDbLinetypeTableRecord
  2
ACAD_ISO10W100
 70
     0
  3
ISO dash dot __ . __ . __ . __ . __ . __ . __ . 
 72
    65
 73
     4
 40
18.0
 49
12.0
 74
     0
 49
-3.0
 74
     0
 49
0.0
 74
     0
 49
-3.0
 74
     0
  0
LTYPE
  5
196D
330
18C9
100
AcDbSymbolTableRecord
100
AcDbLinetypeTableRecord
  2
ACAD_ISO11W100
 70
     0
  3
ISO double-dash dot __ __ . __ __ . __ __ . __ _
 72
    65
 73
     6
 40
33.0
 49
12.0
 74
     0
 49
-3.0
 74
     0
 49
12.0
 74
     0
 49
-3.0
 74
     0
 49
0.0
 74
     0
 49
-3.0
 74
     0
  0
LTYPE
  5
196E
330
18C9
100
AcDbSymbolTableRecord
100
AcDbLinetypeTableRecord
  2
ACAD_ISO12W100
 70
     0
  3
ISO dash double-dot __ . . __ . . __ . . __ . . 
 72
    65
 73
     6
 40
21.0
 49
12.0
 74
     0
 49
-3.0
 74
     0
 49
0.0
 74
     0
 49
-3.0
 74
     0
 49
0.0
 74
     0
 49
-3.0
 74
     0
  0
LTYPE
  5
196F
330
18C9
100
AcDbSymbolTableRecord
100
AcDbLinetypeTableRecord
  2
ACAD_ISO13W100
 70
     0
  3
ISO double-dash double-dot __ __ . . __ __ . . _
 72
    65
 73
     8
 40
36.0
 49
12.0
 74
     0
 49
-3.0
 74
     0
 49
12.0
 74
     0
 49
-3.0
 74
     0
 49
0.0
 74
     0
 49
-3.0
 74
     0
 49
0.0
 74
     0
 49
-3.0
 74
     0
  0
LTYPE
  5
1970
330
18C9
100
AcDbSymbolTableRecord
100
AcDbLinetypeTableRecord
  2
ACAD_ISO14W100
 70
     0
  3
ISO dash triple-dot __ . . . __ . . . __ . . . _
 72
    65
 73
     8
 40
24.0
 49
12.0
 74
     0
 49
-3.0
 74
     0
 49
0.0
 74
     0
 49
-3.0
 74
     0
 49
0.0
 74
     0
 49
-3.0
 74
     0
 49
0.0
 74
     0
 49
-3.0
 74
     0
  0
LTYPE
  5
1971
330
18C9
100
AcDbSymbolTableRecord
100
AcDbLinetypeTableRecord
  2
ACAD_ISO15W100
 70
     0
  3
ISO double-dash triple-dot __ __ . . . __ __ . .
 72
    65
 73
    10
 40
39.0
 49
12.0
 74
     0
 49
-3.0
 74
     0
 49
12.0
 74
     0
 49
-3.0
 74
     0
 49
0.0
 74
     0
 49
-3.0
 74
     0
 49
0.0
 74
     0
 49
-3.0
 74
     0
 49
0.0
 74
     0
 49
-3.0
 74
     0
  0
LTYPE
  5
1972
330
18C9
100
AcDbSymbolTableRecord
100
AcDbLinetypeTableRecord
  2
BATTING
 70
     0
  3
Batting SSSSSSSSSSSSSSSSSSSSSSSSSSSSSSSSSSSSSSSSSSSSSSS
 72
    65
 73
     4
 40
10.16254
 49
0.00254
 74
     0
 49
-2.54
 74
     0
 49
-5.08
 74
     0
 49
-2.54
 74
     0
  0
LTYPE
  5
1973
330
18C9
100
AcDbSymbolTableRecord
100
AcDbLinetypeTableRecord
  2
BORDER
 70
     0
  3
Border __ __ . __ __ . __ __ . __ __ . __ __ .
 72
    65
 73
     6
 40
44.45
 49
12.7
 74
     0
 49
-6.35
 74
     0
 49
12.7
 74
     0
 49
-6.35
 74
     0
 49
0.0
 74
     0
 49
-6.35
 74
     0
  0
LTYPE
  5
1974
330
18C9
100
AcDbSymbolTableRecord
100
AcDbLinetypeTableRecord
  2
BORDER2
 70
     0
  3
Border (.5x) __.__.__.__.__.__.__.__.__.__.__.
 72
    65
 73
     6
 40
22.225
 49
6.35
 74
     0
 49
-3.175
 74
     0
 49
6.35
 74
     0
 49
-3.175
 74
     0
 49
0.0
 74
     0
 49
-3.175
 74
     0
  0
LTYPE
  5
1975
330
18C9
100
AcDbSymbolTableRecord
100
AcDbLinetypeTableRecord
  2
BORDERX2
 70
     0
  3
Border (2x) ____  ____  .  ____  ____  .  ___
 72
    65
 73
     6
 40
88.89999999999999
 49
25.4
 74
     0
 49
-12.7
 74
     0
 49
25.4
 74
     0
 49
-12.7
 74
     0
 49
0.0
 74
     0
 49
-12.7
 74
     0
  0
LTYPE
  5
1976
330
18C9
100
AcDbSymbolTableRecord
100
AcDbLinetypeTableRecord
  2
CENTER
 70
     0
  3
Center ____ _ ____ _ ____ _ ____ _ ____ _ ____
 72
    65
 73
     4
 40
50.8
 49
31.75
 74
     0
 49
-6.35
 74
     0
 49
6.35
 74
     0
 49
-6.35
 74
     0
  0
LTYPE
  5
1977
330
18C9
100
AcDbSymbolTableRecord
100
AcDbLinetypeTableRecord
  2
CENTER2
 70
     0
  3
Center (.5x) ___ _ ___ _ ___ _ ___ _ ___ _ ___
 72
    65
 73
     4
 40
28.575
 49
19.05
 74
     0
 49
-3.175
 74
     0
 49
3.175
 74
     0
 49
-3.175
 74
     0
  0
LTYPE
  5
1978
330
18C9
100
AcDbSymbolTableRecord
100
AcDbLinetypeTableRecord
  2
CENTERX2
 70
     0
  3
Center (2x) ________  __  ________  __  _____
 72
    65
 73
     4
 40
101.6
 49
63.5
 74
     0
 49
-12.7
 74
     0
 49
12.7
 74
     0
 49
-12.7
 74
     0
  0
LTYPE
  5
1979
330
18C9
100
AcDbSymbolTableRecord
100
AcDbLinetypeTableRecord
  2
DASHDOT
 70
     0
  3
Dash dot __ . __ . __ . __ . __ . __ . __ . __
 72
    65
 73
     4
 40
25.4
 49
12.7
 74
     0
 49
-6.35
 74
     0
 49
0.0
 74
     0
 49
-6.35
 74
     0
  0
LTYPE
  5
197A
330
18C9
100
AcDbSymbolTableRecord
100
AcDbLinetypeTableRecord
  2
DASHDOT2
 70
     0
  3
Dash dot (.5x) _._._._._._._._._._._._._._._.
 72
    65
 73
     4
 40
12.7
 49
6.35
 74
     0
 49
-3.175
 74
     0
 49
0.0
 74
     0
 49
-3.175
 74
     0
  0
LTYPE
  5
197B
330
18C9
100
AcDbSymbolTableRecord
100
AcDbLinetypeTableRecord
  2
DASHDOTX2
 70
     0
  3
Dash dot (2x) ____  .  ____  .  ____  .  ___
 72
    65
 73
     4
 40
50.8
 49
25.4
 74
     0
 49
-12.7
 74
     0
 49
0.0
 74
     0
 49
-12.7
 74
     0
  0
LTYPE
  5
197C
330
18C9
100
AcDbSymbolTableRecord
100
AcDbLinetypeTableRecord
  2
DASHED
 70
     0
  3
Dashed __ __ __ __ __ __ __ __ __ __ __ __ __ _
 72
    65
 73
     2
 40
19.05
 49
12.7
 74
     0
 49
-6.35
 74
     0
  0
LTYPE
  5
197D
330
18C9
100
AcDbSymbolTableRecord
100
AcDbLinetypeTableRecord
  2
DASHED2
 70
     0
  3
Dashed (.5x) _ _ _ _ _ _ _ _ _ _ _ _ _ _ _ _ _ 
 72
    65
 73
     2
 40
9.524999999999999
 49
6.35
 74
     0
 49
-3.175
 74
     0
  0
LTYPE
  5
197E
330
18C9
100
AcDbSymbolTableRecord
100
AcDbLinetypeTableRecord
  2
DASHEDX2
 70
     0
  3
Dashed (2x) ____  ____  ____  ____  ____  ___
 72
    65
 73
     2
 40
38.09999999999999
 49
25.4
 74
     0
 49
-12.7
 74
     0
  0
LTYPE
  5
197F
330
18C9
100
AcDbSymbolTableRecord
100
AcDbLinetypeTableRecord
  2
DIVIDE
 70
     0
  3
Divide ____ . . ____ . . ____ . . ____ . . ____
 72
    65
 73
     6
 40
31.75
 49
12.7
 74
     0
 49
-6.35
 74
     0
 49
0.0
 74
     0
 49
-6.35
 74
     0
 49
0.0
 74
     0
 49
-6.35
 74
     0
  0
LTYPE
  5
1980
330
18C9
100
AcDbSymbolTableRecord
100
AcDbLinetypeTableRecord
  2
DIVIDE2
 70
     0
  3
Divide (.5x) __..__..__..__..__..__..__..__.._
 72
    65
 73
     6
 40
15.875
 49
6.35
 74
     0
 49
-3.175
 74
     0
 49
0.0
 74
     0
 49
-3.175
 74
     0
 49
0.0
 74
     0
 49
-3.175
 74
     0
  0
LTYPE
  5
1981
330
18C9
100
AcDbSymbolTableRecord
100
AcDbLinetypeTableRecord
  2
DIVIDEX2
 70
     0
  3
Divide (2x) ________  .  .  ________  .  .  _
 72
    65
 73
     6
 40
63.5
 49
25.4
 74
     0
 49
-12.7
 74
     0
 49
0.0
 74
     0
 49
-12.7
 74
     0
 49
0.0
 74
     0
 49
-12.7
 74
     0
  0
LTYPE
  5
1982
330
18C9
100
AcDbSymbolTableRecord
100
AcDbLinetypeTableRecord
  2
DOT
 70
     0
  3
Dot . . . . . . . . . . . . . . . . . . . . . . . .
 72
    65
 73
     2
 40
6.35
 49
0.0
 74
     0
 49
-6.35
 74
     0
  0
LTYPE
  5
1983
330
18C9
100
AcDbSymbolTableRecord
100
AcDbLinetypeTableRecord
  2
DOT2
 70
     0
  3
Dot (.5x) ........................................
 72
    65
 73
     2
 40
3.175
 49
0.0
 74
     0
 49
-3.175
 74
     0
  0
LTYPE
  5
1984
330
18C9
100
AcDbSymbolTableRecord
100
AcDbLinetypeTableRecord
  2
DOTX2
 70
     0
  3
Dot (2x) .  .  .  .  .  .  .  .  .  .  .  .  .  .
 72
    65
 73
     2
 40
12.7
 49
0.0
 74
     0
 49
-12.7
 74
     0
  0
LTYPE
  5
1985
330
18C9
100
AcDbSymbolTableRecord
100
AcDbLinetypeTableRecord
  2
DRAINAGE
 70
     0
  3
Drainage ---->---->---->----
 72
    65
 73
     2
 40
10.16
 49
5.08
 74
     0
 49
5.08
 74
     0
  0
LTYPE
  5
1986
330
18C9
100
AcDbSymbolTableRecord
100
AcDbLinetypeTableRecord
  2
DRAINAGE2
 70
     0
  3
Drainage reversed----<----<----<----
 72
    65
 73
     2
 40
10.16
 49
5.08
 74
     0
 49
5.08
 74
     0
  0
LTYPE
  5
1987
330
18C9
100
AcDbSymbolTableRecord
100
AcDbLinetypeTableRecord
  2
FENCELINE1
 70
     0
  3
Fenceline circle ----0-----0----0-----0----0-----0--
 72
    65
 73
     4
 40
36.83
 49
6.35
 74
     0
 49
-2.54
 74
     0
 49
-2.54
 74
     0
 49
25.4
 74
     0
  0
LTYPE
  5
1988
330
18C9
100
AcDbSymbolTableRecord
100
AcDbLinetypeTableRecord
  2
FENCELINE2
 70
     0
  3
Fenceline square ----[]-----[]----[]-----[]----[]---
 72
    65
 73
     4
 40
36.83
 49
6.35
 74
     0
 49
-2.54
 74
     0
 49
-2.54
 74
     0
 49
25.4
 74
     0
  0
LTYPE
  5
1989
330
18C9
100
AcDbSymbolTableRecord
100
AcDbLinetypeTableRecord
  2
GAS_LINE
 70
     0
  3
Gas line ----GAS----GAS----GAS----GAS----GAS----GAS--
 72
    65
 73
     3
 40
24.13
 49
12.7
 74
     0
 49
-5.08
 74
     0
 49
-6.35
 74
     0
  0
LTYPE
  5
198A
330
18C9
100
AcDbSymbolTableRecord
100
AcDbLinetypeTableRecord
  2
HIDDEN
 70
     0
  3
Hidden __ __ __ __ __ __ __ __ __ __ __ __ __ __
 72
    65
 73
     2
 40
9.524999999999999
 49
6.35
 74
     0
 49
-3.175
 74
     0
  0
LTYPE
  5
198B
330
18C9
100
AcDbSymbolTableRecord
100
AcDbLinetypeTableRecord
  2
HIDDEN2
 70
     0
  3
Hidden (.5x) _ _ _ _ _ _ _ _ _ _ _ _ _ _ _ _ _ 
 72
    65
 73
     2
 40
4.762499999999999
 49
3.175
 74
     0
 49
-1.5875
 74
     0
  0
LTYPE
  5
198C
330
18C9
100
AcDbSymbolTableRecord
100
AcDbLinetypeTableRecord
  2
HIDDENX2
 70
     0
  3
Hidden (2x) ____ ____ ____ ____ ____ ____ ____ 
 72
    65
 73
     2
 40
19.05
 49
12.7
 74
     0
 49
-6.35
 74
     0
  0
LTYPE
  5
198D
330
18C9
100
AcDbSymbolTableRecord
100
AcDbLinetypeTableRecord
  2
HOT_WATER_SUPPLY
 70
     0
  3
Hot water supply ---- HW ---- HW ---- HW ----
 72
    65
 73
     3
 40
22.86
 49
12.7
 74
     0
 49
-5.08
 74
     0
 49
-5.08
 74
     0
  0
LTYPE
  5
198E
330
18C9
100
AcDbSymbolTableRecord
100
AcDbLinetypeTableRecord
  2
PHANTOM
 70
     0
  3
Phantom ______  __  __  ______  __  __  ______ 
 72
    65
 73
     6
 40
63.50000000000001
 49
31.75
 74
     0
 49
-6.35
 74
     0
 49
6.35
 74
     0
 49
-6.35
 74
     0
 49
6.35
 74
     0
 49
-6.35
 74
     0
  0
LTYPE
  5
198F
330
18C9
100
AcDbSymbolTableRecord
100
AcDbLinetypeTableRecord
  2
PHANTOM2
 70
     0
  3
Phantom (.5x) ___ _ _ ___ _ _ ___ _ _ ___ _ _
 72
    65
 73
     6
 40
31.75
 49
15.875
 74
     0
 49
-3.175
 74
     0
 49
3.175
 74
     0
 49
-3.175
 74
     0
 49
3.175
 74
     0
 49
-3.175
 74
     0
  0
LTYPE
  5
1990
330
18C9
100
AcDbSymbolTableRecord
100
AcDbLinetypeTableRecord
  2
PHANTOMX2
 70
     0
  3
Phantom (2x) ____________    ____    ____   _
 72
    65
 73
     6
 40
127.0
 49
63.5
 74
     0
 49
-12.7
 74
     0
 49
12.7
 74
     0
 49
-12.7
 74
     0
 49
12.7
 74
     0
 49
-12.7
 74
     0
  0
LTYPE
  5
1991
330
18C9
100
AcDbSymbolTableRecord
100
AcDbLinetypeTableRecord
  2
TRACKS
 70
     0
  3
Tracks -|-|-|-|-|-|-|-|-|-|-|-|-|-|-|-|-|-|-|-|-|-|-|-|-
 72
    65
 73
     2
 40
7.62
 49
3.81
 74
     0
 49
3.81
 74
     0
  0
LTYPE
  5
1992
330
18C9
100
AcDbSymbolTableRecord
100
AcDbLinetypeTableRecord
  2
ZIGZAG
 70
     0
  3
Zig zag /\/\/\/\/\/\/\/\/\/\/\/\/\/\/\/\/\/\/\/\/\/\/\/
 72
    65
 73
     4
 40
20.32254
 49
0.00254
 74
     0
 49
-5.08
 74
     0
 49
-10.16
 74
     0
 49
-5.08
 74
     0
  0
LTYPE
  5
1993
330
18C9
100
AcDbSymbolTableRecord
100
AcDbLinetypeTableRecord
  2
CENTERLINE
 70
     0
  3
_ 
 72
    65
 73
     5
 40
30.0
 49
12.0
 74
     0
 49
-1.5
 74
     0
 49
3.0
 74
     0
 49
-1.5
 74
     0
 49
12.0
 74
     0
  0
ENDTAB
  0
TABLE
  2
LAYER
  5
18C6
330
0
100
AcDbSymbolTable
 70
     7
  0
LAYER
  5
18D4
330
18C6
100
AcDbSymbolTableRecord
100
AcDbLayerTableRecord
  2
0
 70
     0
 62
     7
420
 16777215
  6
Continuous
370
    -3
390
18D3
347
1909
348
0
  0
LAYER
  5
1994
330
18C6
100
AcDbSymbolTableRecord
100
AcDbLayerTableRecord
  2
BEMASSUNG
 70
     0
 62
     3
420
    65280
  6
Continuous
370
    -3
390
18D3
347
1909
348
0
  0
LAYER
  5
1995
330
18C6
100
AcDbSymbolTableRecord
100
AcDbLayerTableRecord
  2
INFO
 70
     0
 62
     2
420
 16776960
  6
Continuous
370
    -3
390
18D3
347
1909
348
0
  0
LAYER
  5
1996
330
18C6
100
AcDbSymbolTableRecord
100
AcDbLayerTableRecord
  2
Defpoints
 70
     0
 62
     7
420
 16777215
  6
Continuous
290
     0
370
    -3
390
18D3
347
1909
348
0
  0
LAYER
  5
1997
330
18C6
100
AcDbSymbolTableRecord
100
AcDbLayerTableRecord
  2
Dimension
 70
     0
 62
     7
420
 16777215
  6
Continuous
370
    -3
390
18D3
347
1909
348
0
  0
LAYER
  5
1998
330
18C6
100
AcDbSymbolTableRecord
100
AcDbLayerTableRecord
  2
Cutout
 70
     0
 62
     1
420
 16711680
  6
Continuous
370
    -3
390
18D3
347
1909
348
0
  0
LAYER
  5
1999
330
18C6
100
AcDbSymbolTableRecord
100
AcDbLayerTableRecord
  2
Origins
 70
     0
 62
     1
420
 16711680
  6
Continuous
370
    -3
390
18D3
347
1909
348
0
  0
ENDTAB
  0
TABLE
  2
STYLE
  5
18C7
330
0
100
AcDbSymbolTable
 70
     6
  0
STYLE
  5
18D5
330
18C7
100
AcDbSymbolTableRecord
100
AcDbTextStyleTableRecord
  2
Standard
 70
     0
 40
0.0
 41
1.0
 50
0.0
 71
     0
 42
2.5
  3
txt
  4

  0
STYLE
  5
1962
330
18C7
100
AcDbSymbolTableRecord
100
AcDbTextStyleTableRecord
  2
QCADDimTextStyle
 70
     0
 40
0.0
 41
1.0
 50
0.0
 71
     0
 42
2.5
  3

  4

  0
STYLE
  5
19C7
330
18C7
100
AcDbSymbolTableRecord
100
AcDbTextStyleTableRecord
  2
textstyle0
 70
     0
 40
0.0
 41
1.0
 50
0.0
 71
     0
 42
2.5
  3

  4

1001
ACAD
1000
Arial
1071
        0
  0
STYLE
  5
19E2
330
18C7
100
AcDbSymbolTableRecord
100
AcDbTextStyleTableRecord
  2
textstyle1
 70
     0
 40
0.0
 41
1.0
 50
0.0
 71
     0
 42
2.5
  3

  4

1001
ACAD
1000
Arial
1071
        0
  0
STYLE
  5
19E3
330
18C7
100
AcDbSymbolTableRecord
100
AcDbTextStyleTableRecord
  2
textstyle2
 70
     0
 40
0.0
 41
1.0
 50
0.0
 71
     0
 42
2.5
  3

  4

1001
ACAD
1000
Arial
1071
        0
  0
STYLE
  5
19FB
330
18C7
100
AcDbSymbolTableRecord
100
AcDbTextStyleTableRecord
  2
textstyle3
 70
     0
 40
0.0
 41
1.0
 50
0.0
 71
     0
 42
2.5
  3

  4

1001
ACAD
1000
Arial
1071
        0
  0
ENDTAB
  0
TABLE
  2
VIEW
  5
18CA
330
0
100
AcDbSymbolTable
 70
     0
  0
ENDTAB
  0
TABLE
  2
UCS
  5
18CB
330
0
100
AcDbSymbolTable
 70
     0
  0
ENDTAB
  0
TABLE
  2
APPID
  5
18CD
330
0
100
AcDbSymbolTable
 70
     2
  0
APPID
  5
18D6
330
18CD
100
AcDbSymbolTableRecord
100
AcDbRegAppTableRecord
  2
ACAD
 70
     0
  0
APPID
  5
1931
330
18CD
100
AcDbSymbolTableRecord
100
AcDbRegAppTableRecord
  2
QCAD
 70
     0
  0
ENDTAB
  0
TABLE
  2
DIMSTYLE
  5
18CE
330
0
100
AcDbSymbolTable
 70
     2
100
AcDbDimStyleTable
  0
DIMSTYLE
105
18EA
330
18CE
100
AcDbSymbolTableRecord
100
AcDbDimStyleTableRecord
  2
Standard
 70
     0
178
     0
340
18D5
  0
DIMSTYLE
105
1963
102
{ACAD_REACTORS
330
A7
330
A8
330
AE
330
AF
330
BA
330
BB
330
339
330
413
330
CE9
330
CEA
330
DC4
330
DC7
330
EA0
330
EA1
330
EA2
330
F7F
330
F80
330
1058
330
1059
330
105A
330
105B
330
105F
330
1060
330
1061
330
162D
330
162E
330
162F
330
1631
330
1633
330
1634
330
1635
330
1636
330
163C
330
163D
330
163E
330
163F
330
1640
330
1641
330
1642
330
1718
330
17EE
102
}
330
18CE
100
AcDbSymbolTableRecord
100
AcDbDimStyleTableRecord
  2
QCADDimStyle
 70
     0
 41
2.5
 42
0.625
 44
1.25
 73
     0
 77
     1
140
2.5
147
0.625
178
     0
340
1962
  0
ENDTAB
  0
TABLE
  2
BLOCK_RECORD
  5
18C5
330
0
100
AcDbSymbolTable
 70
    42
  0
BLOCK_RECORD
  5
18E2
330
18C5
100
AcDbSymbolTableRecord
100
AcDbBlockTableRecord
  2
*Model_Space
340
18E5
 70
     0
280
     1
281
     0
  0
BLOCK_RECORD
  5
18DE
330
18C5
100
AcDbSymbolTableRecord
100
AcDbBlockTableRecord
  2
*Paper_Space
340
18E1
 70
     0
280
     1
281
     0
  0
BLOCK_RECORD
  5
18E6
330
18C5
100
AcDbSymbolTableRecord
100
AcDbBlockTableRecord
  2
*Paper_Space0
340
18E9
 70
     0
280
     1
281
     0
  0
BLOCK_RECORD
  5
199A
330
18C5
100
AcDbSymbolTableRecord
100
AcDbBlockTableRecord
  2
*D1
340
0
 70
     0
280
     1
281
     0
  0
BLOCK_RECORD
  5
19A6
330
18C5
100
AcDbSymbolTableRecord
100
AcDbBlockTableRecord
  2
*D2
340
0
 70
     0
280
     1
281
     0
  0
BLOCK_RECORD
  5
19B2
330
18C5
100
AcDbSymbolTableRecord
100
AcDbBlockTableRecord
  2
*D3
340
0
 70
     0
280
     1
281
     0
  0
BLOCK_RECORD
  5
19BE
330
18C5
100
AcDbSymbolTableRecord
100
AcDbBlockTableRecord
  2
*D4
340
0
 70
     0
280
     1
281
     0
  0
BLOCK_RECORD
  5
19C8
330
18C5
100
AcDbSymbolTableRecord
100
AcDbBlockTableRecord
  2
*D5
340
0
 70
     0
280
     1
281
     0
  0
BLOCK_RECORD
  5
19D5
330
18C5
100
AcDbSymbolTableRecord
100
AcDbBlockTableRecord
  2
*D6
340
0
 70
     0
280
     1
281
     0
  0
BLOCK_RECORD
  5
19E4
330
18C5
100
AcDbSymbolTableRecord
100
AcDbBlockTableRecord
  2
*D7
340
0
 70
     0
280
     1
281
     0
  0
BLOCK_RECORD
  5
19F0
330
18C5
100
AcDbSymbolTableRecord
100
AcDbBlockTableRecord
  2
*D8
340
0
 70
     0
280
     1
281
     0
  0
BLOCK_RECORD
  5
19FC
330
18C5
100
AcDbSymbolTableRecord
100
AcDbBlockTableRecord
  2
*D9
340
0
 70
     0
280
     1
281
     0
  0
BLOCK_RECORD
  5
1A08
330
18C5
100
AcDbSymbolTableRecord
100
AcDbBlockTableRecord
  2
*D10
340
0
 70
     0
280
     1
281
     0
  0
BLOCK_RECORD
  5
1A11
330
18C5
100
AcDbSymbolTableRecord
100
AcDbBlockTableRecord
  2
*D11
340
0
 70
     0
280
     1
281
     0
  0
BLOCK_RECORD
  5
1A1A
330
18C5
100
AcDbSymbolTableRecord
100
AcDbBlockTableRecord
  2
*D12
340
0
 70
     0
280
     1
281
     0
  0
BLOCK_RECORD
  5
1A26
330
18C5
100
AcDbSymbolTableRecord
100
AcDbBlockTableRecord
  2
*D13
340
0
 70
     0
280
     1
281
     0
  0
BLOCK_RECORD
  5
1A32
330
18C5
100
AcDbSymbolTableRecord
100
AcDbBlockTableRecord
  2
*D14
340
0
 70
     0
280
     1
281
     0
  0
BLOCK_RECORD
  5
1A3E
330
18C5
100
AcDbSymbolTableRecord
100
AcDbBlockTableRecord
  2
*D15
340
0
 70
     0
280
     1
281
     0
  0
BLOCK_RECORD
  5
1A4B
330
18C5
100
AcDbSymbolTableRecord
100
AcDbBlockTableRecord
  2
*D16
340
0
 70
     0
280
     1
281
     0
  0
BLOCK_RECORD
  5
1A57
330
18C5
100
AcDbSymbolTableRecord
100
AcDbBlockTableRecord
  2
*D17
340
0
 70
     0
280
     1
281
     0
  0
BLOCK_RECORD
  5
1A63
330
18C5
100
AcDbSymbolTableRecord
100
AcDbBlockTableRecord
  2
*D18
340
0
 70
     0
280
     1
281
     0
  0
BLOCK_RECORD
  5
1A6F
330
18C5
100
AcDbSymbolTableRecord
100
AcDbBlockTableRecord
  2
*D19
340
0
 70
     0
280
     1
281
     0
  0
BLOCK_RECORD
  5
1A7B
330
18C5
100
AcDbSymbolTableRecord
100
AcDbBlockTableRecord
  2
*D20
340
0
 70
     0
280
     1
281
     0
  0
BLOCK_RECORD
  5
1A87
330
18C5
100
AcDbSymbolTableRecord
100
AcDbBlockTableRecord
  2
*D21
340
0
 70
     0
280
     1
281
     0
  0
BLOCK_RECORD
  5
1A93
330
18C5
100
AcDbSymbolTableRecord
100
AcDbBlockTableRecord
  2
*D22
340
0
 70
     0
280
     1
281
     0
  0
BLOCK_RECORD
  5
1AA0
330
18C5
100
AcDbSymbolTableRecord
100
AcDbBlockTableRecord
  2
*D23
340
0
 70
     0
280
     1
281
     0
  0
BLOCK_RECORD
  5
1AAC
330
18C5
100
AcDbSymbolTableRecord
100
AcDbBlockTableRecord
  2
*D24
340
0
 70
     0
280
     1
281
     0
  0
BLOCK_RECORD
  5
1AB8
330
18C5
100
AcDbSymbolTableRecord
100
AcDbBlockTableRecord
  2
*D25
340
0
 70
     0
280
     1
281
     0
  0
BLOCK_RECORD
  5
1AC4
330
18C5
100
AcDbSymbolTableRecord
100
AcDbBlockTableRecord
  2
*D26
340
0
 70
     0
280
     1
281
     0
  0
BLOCK_RECORD
  5
1AD0
330
18C5
100
AcDbSymbolTableRecord
100
AcDbBlockTableRecord
  2
*D27
340
0
 70
     0
280
     1
281
     0
  0
BLOCK_RECORD
  5
1ADC
330
18C5
100
AcDbSymbolTableRecord
100
AcDbBlockTableRecord
  2
*D28
340
0
 70
     0
280
     1
281
     0
  0
BLOCK_RECORD
  5
1AE8
330
18C5
100
AcDbSymbolTableRecord
100
AcDbBlockTableRecord
  2
*D29
340
0
 70
     0
280
     1
281
     0
  0
BLOCK_RECORD
  5
1AF4
330
18C5
100
AcDbSymbolTableRecord
100
AcDbBlockTableRecord
  2
*D30
340
0
 70
     0
280
     1
281
     0
  0
BLOCK_RECORD
  5
1B00
330
18C5
100
AcDbSymbolTableRecord
100
AcDbBlockTableRecord
  2
*D31
340
0
 70
     0
280
     1
281
     0
  0
BLOCK_RECORD
  5
1B0C
330
18C5
100
AcDbSymbolTableRecord
100
AcDbBlockTableRecord
  2
*D32
340
0
 70
     0
280
     1
281
     0
  0
BLOCK_RECORD
  5
1B18
330
18C5
100
AcDbSymbolTableRecord
100
AcDbBlockTableRecord
  2
*D33
340
0
 70
     0
280
     1
281
     0
  0
BLOCK_RECORD
  5
1B24
330
18C5
100
AcDbSymbolTableRecord
100
AcDbBlockTableRecord
  2
*D34
340
0
 70
     0
280
     1
281
     0
  0
BLOCK_RECORD
  5
1B30
330
18C5
100
AcDbSymbolTableRecord
100
AcDbBlockTableRecord
  2
*D35
340
0
 70
     0
280
     1
281
     0
  0
BLOCK_RECORD
  5
1B3C
330
18C5
100
AcDbSymbolTableRecord
100
AcDbBlockTableRecord
  2
*D36
340
0
 70
     0
280
     1
281
     0
  0
BLOCK_RECORD
  5
1B48
330
18C5
100
AcDbSymbolTableRecord
100
AcDbBlockTableRecord
  2
*D37
340
0
 70
     0
280
     1
281
     0
  0
BLOCK_RECORD
  5
1B54
330
18C5
100
AcDbSymbolTableRecord
100
AcDbBlockTableRecord
  2
*D38
340
0
 70
     0
280
     1
281
     0
  0
BLOCK_RECORD
  5
1B60
330
18C5
100
AcDbSymbolTableRecord
100
AcDbBlockTableRecord
  2
*D39
340
0
 70
     0
280
     1
281
     0
  0
BLOCK_RECORD
  5
1B6C
330
18C5
100
AcDbSymbolTableRecord
100
AcDbBlockTableRecord
  2
*D40
340
0
 70
     0
280
     1
281
     0
  0
BLOCK_RECORD
  5
1B75
330
18C5
100
AcDbSymbolTableRecord
100
AcDbBlockTableRecord
  2
*D41
340
0
 70
     0
280
     1
281
     0
  0
ENDTAB
  0
ENDSEC
  0
SECTION
  2
BLOCKS
  0
BLOCK
  5
18E3
330
18E2
100
AcDbEntity
  8
0
100
AcDbBlockBegin
  2
*Model_Space
 70
     0
 10
0.0
 20
0.0
 30
0.0
  3
*Model_Space
  1
*Model_Space
  0
ENDBLK
  5
18E4
330
18E2
100
AcDbEntity
  8
0
100
AcDbBlockEnd
  0
BLOCK
  5
18DF
330
18DE
100
AcDbEntity
 67
     1
  8
0
100
AcDbBlockBegin
  2
*Paper_Space
 70
     0
 10
0.0
 20
0.0
 30
0.0
  3
*Paper_Space
  1
*Paper_Space
  0
ENDBLK
  5
18E0
330
18DE
100
AcDbEntity
 67
     1
  8
0
100
AcDbBlockEnd
  0
BLOCK
  5
18E7
330
18E6
100
AcDbEntity
  8
0
100
AcDbBlockBegin
  2
*Paper_Space0
 70
     0
 10
0.0
 20
0.0
 30
0.0
  3
*Paper_Space0
  1
*Paper_Space0
  0
ENDBLK
  5
18E8
330
18E6
100
AcDbEntity
  8
0
100
AcDbBlockEnd
  0
BLOCK
  5
199B
330
199A
100
AcDbEntity
  8
0
100
AcDbBlockBegin
  2
*D1
 70
     1
 10
0.0
 20
0.0
 30
0.0
  3
*D1
  1
*D1
  0
LINE
  5
199D
330
199A
100
AcDbEntity
  8
BEMASSUNG
 62
     0
370
    -2
100
AcDbLine
 10
-7.450000000000014
 20
126.025
 30
0.0
 11
-7.450000000000018
 21
131.25
 31
0.0
  0
LINE
  5
199E
330
199A
100
AcDbEntity
  8
BEMASSUNG
 62
     0
370
    -2
100
AcDbLine
 10
43.01000000000001
 20
126.0249999999999
 30
0.0
 11
43.01000000000001
 21
131.25
 31
0.0
  0
LINE
  5
199F
330
199A
100
AcDbEntity
  8
BEMASSUNG
 62
     0
370
    -2
100
AcDbLine
 10
-4.950000000000017
 20
130.0
 30
0.0
 11
40.51000000000001
 21
130.0
 31
0.0
  0
SOLID
  5
19A0
330
199A
100
AcDbEntity
  8
BEMASSUNG
 62
     0
100
AcDbTrace
 10
-4.950000000000017
 20
130.4166666666667
 30
0.0
 11
-4.950000000000017
 21
129.5833333333333
 31
0.0
 12
-7.450000000000017
 22
130.0
 32
0.0
 13
-7.450000000000017
 23
130.0
 33
0.0
  0
SOLID
  5
19A1
330
199A
100
AcDbEntity
  8
BEMASSUNG
 62
     0
100
AcDbTrace
 10
40.51000000000001
 20
129.5833333333333
 30
0.0
 11
40.51000000000001
 21
130.4166666666667
 31
0.0
 12
43.01000000000001
 22
130.0
 32
0.0
 13
43.01000000000001
 23
130.0
 33
0.0
  0
MTEXT
  5
19A2
330
199A
100
AcDbEntity
  8
BEMASSUNG
 62
     0
100
AcDbMText
 10
17.77999999999999
 20
131.875
 30
0.0
 40
2.5
 41
0.0
 46
0.0
 71
     5
 72
     1
  1
50.46
  7
QCADDimTextStyle
 73
     1
 44
1.0
  0
POINT
  5
19A3
330
199A
100
AcDbEntity
  8
Defpoints
 62
     0
100
AcDbPoint
 10
-7.450000000000014
 20
125.4
 30
0.0
  0
POINT
  5
19A4
330
199A
100
AcDbEntity
  8
Defpoints
 62
     0
100
AcDbPoint
 10
43.01000000000001
 20
125.3999999999999
 30
0.0
  0
POINT
  5
19A5
330
199A
100
AcDbEntity
  8
Defpoints
 62
     0
100
AcDbPoint
 10
43.01000000000001
 20
130.0
 30
0.0
  0
ENDBLK
  5
199C
330
199A
100
AcDbEntity
  8
0
100
AcDbBlockEnd
  0
BLOCK
  5
19A7
330
19A6
100
AcDbEntity
  8
0
100
AcDbBlockBegin
  2
*D2
 70
     1
 10
0.0
 20
0.0
 30
0.0
  3
*D2
  1
*D2
  0
LINE
  5
19A9
330
19A6
100
AcDbEntity
  8
BEMASSUNG
 62
     0
370
    -2
100
AcDbLine
 10
43.63500000000001
 20
125.3999999999999
 30
0.0
 11
51.2499999999998
 21
125.3999999999999
 31
0.0
  0
LINE
  5
19AA
330
19A6
100
AcDbEntity
  8
BEMASSUNG
 62
     0
370
    -2
100
AcDbLine
 10
43.635
 20
-3.0
 30
0.0
 11
51.24999999999979
 21
-3.0
 31
0.0
  0
LINE
  5
19AB
330
19A6
100
AcDbEntity
  8
BEMASSUNG
 62
     0
370
    -2
100
AcDbLine
 10
49.9999999999998
 20
122.8999999999999
 30
0.0
 11
49.99999999999979
 21
-0.5000000000000004
 31
0.0
  0
SOLID
  5
19AC
330
19A6
100
AcDbEntity
  8
BEMASSUNG
 62
     0
100
AcDbTrace
 10
50.41666666666647
 20
122.8999999999999
 30
0.0
 11
49.58333333333314
 21
122.8999999999999
 31
0.0
 12
49.9999999999998
 22
125.3999999999999
 32
0.0
 13
49.9999999999998
 23
125.3999999999999
 33
0.0
  0
SOLID
  5
19AD
330
19A6
100
AcDbEntity
  8
BEMASSUNG
 62
     0
100
AcDbTrace
 10
49.58333333333313
 20
-0.5000000000000004
 30
0.0
 11
50.41666666666646
 21
-0.5000000000000004
 31
0.0
 12
49.99999999999979
 22
-3.0
 32
0.0
 13
49.99999999999979
 23
-3.0
 33
0.0
  0
MTEXT
  5
19AE
330
19A6
100
AcDbEntity
  8
BEMASSUNG
 62
     0
100
AcDbMText
 10
48.12499999999988
 20
57.2
 30
0.0
 40
2.5
 41
0.0
 46
0.0
 71
     5
 72
     1
  1
128.4
  7
QCADDimTextStyle
 11
5.533821929595800E-17
 21
1.0
 31
0.0
 73
     1
 44
1.0
  0
POINT
  5
19AF
330
19A6
100
AcDbEntity
  8
Defpoints
 62
     0
100
AcDbPoint
 10
43.01000000000001
 20
125.3999999999999
 30
0.0
  0
POINT
  5
19B0
330
19A6
100
AcDbEntity
  8
Defpoints
 62
     0
100
AcDbPoint
 10
43.01
 20
-3.0
 30
0.0
  0
POINT
  5
19B1
330
19A6
100
AcDbEntity
  8
Defpoints
 62
     0
100
AcDbPoint
 10
49.99999999999979
 20
-3.0
 30
0.0
  0
ENDBLK
  5
19A8
330
19A6
100
AcDbEntity
  8
0
100
AcDbBlockEnd
  0
BLOCK
  5
19B3
330
19B2
100
AcDbEntity
  8
0
100
AcDbBlockBegin
  2
*D3
 70
     1
 10
0.0
 20
0.0
 30
0.0
  3
*D3
  1
*D3
  0
LINE
  5
19B5
330
19B2
100
AcDbEntity
  8
BEMASSUNG
 62
     0
370
    -2
100
AcDbLine
 10
-3.154042893998335
 20
112.9078300257988
 30
0.0
 11
-5.202122695295948
 21
114.3414858867071
 31
0.0
  0
LINE
  5
19B6
330
19B2
100
AcDbEntity
  8
BEMASSUNG
 62
     0
370
    -2
100
AcDbLine
 10
3.154042893998308
 20
108.4921699742012
 30
0.0
 11
5.202122695295921
 21
107.0585141132929
 31
0.0
  0
MTEXT
  5
19B7
330
19B2
100
AcDbEntity
  8
BEMASSUNG
 62
     0
100
AcDbMText
 10
5.0
 20
110.0
 30
0.0
 40
2.5
 41
0.0
 46
0.0
 71
     5
 72
     1
  1
%%c2.7
  7
QCADDimTextStyle
 11
0.8192319205190453
 21
-0.5734623443633214
 31
0.0
 73
     1
 44
1.0
  0
SOLID
  5
19B8
330
19B2
100
AcDbEntity
  8
BEMASSUNG
 62
     0
100
AcDbTrace
 10
3.392985537483025
 20
108.8335166077508
 30
0.0
 11
2.915100250513591
 21
108.1508233406516
 31
0.0
 12
1.105963092700694
 22
109.9258258351095
 32
0.0
 13
1.105963092700694
 23
109.9258258351095
 33
0.0
  0
SOLID
  5
19B9
330
19B2
100
AcDbEntity
  8
BEMASSUNG
 62
     0
100
AcDbTrace
 10
-3.392985537483053
 20
112.5664833922492
 30
0.0
 11
-2.915100250513618
 21
113.2491766593484
 31
0.0
 12
-1.105963092700722
 22
111.4741741648905
 32
0.0
 13
-1.105963092700722
 23
111.4741741648905
 33
0.0
  0
LINE
  5
19BA
330
19B2
100
AcDbEntity
  8
BEMASSUNG
 62
     0
100
AcDbLine
 10
-2.500000000000014
 20
110.7
 30
0.0
 11
2.499999999999986
 21
110.7
 31
0.0
  0
LINE
  5
19BB
330
19B2
100
AcDbEntity
  8
BEMASSUNG
 62
     0
100
AcDbLine
 10
-0.000000000000014
 20
108.2
 30
0.0
 11
-0.000000000000014
 21
113.2
 31
0.0
  0
POINT
  5
19BC
330
19B2
100
AcDbEntity
  8
Defpoints
 62
     0
100
AcDbPoint
 10
-1.105963092700722
 20
111.4741741648905
 30
0.0
  0
POINT
  5
19BD
330
19B2
100
AcDbEntity
  8
Defpoints
 62
     0
100
AcDbPoint
 10
1.105963092700694
 20
109.9258258351095
 30
0.0
  0
ENDBLK
  5
19B4
330
19B2
100
AcDbEntity
  8
0
100
AcDbBlockEnd
  0
BLOCK
  5
19BF
330
19BE
100
AcDbEntity
  8
0
100
AcDbBlockBegin
  2
*D4
 70
     1
 10
0.0
 20
0.0
 30
0.0
  3
*D4
  1
*D4
  0
LINE
  5
19C1
330
19BE
100
AcDbEntity
  8
BEMASSUNG
 62
     0
370
    -2
100
AcDbLine
 10
-0.0000000000000141
 20
110.7
 30
0.0
 11
-0.0000000000000141
 21
110.7
 31
0.0
  0
MTEXT
  5
19C2
330
19BE
100
AcDbEntity
  8
BEMASSUNG
 62
     0
100
AcDbMText
 10
-2.0
 20
116.0
 30
0.0
 40
2.5
 41
0.0
 46
0.0
 71
     5
 72
     1
  1
%%c5
  7
QCADDimTextStyle
 11
1.224646799147351E-16
 21
1.0
 31
0.0
 73
     1
 44
1.0
  0
SOLID
  5
19C3
330
19BE
100
AcDbEntity
  8
BEMASSUNG
 62
     0
100
AcDbTrace
 10
0.4166666666666526
 20
110.7
 30
0.0
 11
-0.4166666666666807
 21
110.7
 31
0.0
 12
-0.0000000000000137
 22
113.2
 32
0.0
 13
-0.0000000000000137
 23
113.2
 33
0.0
  0
SOLID
  5
19C4
330
19BE
100
AcDbEntity
  8
BEMASSUNG
 62
     0
100
AcDbTrace
 10
-0.4166666666666807
 20
110.7
 30
0.0
 11
0.4166666666666526
 21
110.7
 31
0.0
 12
-0.0000000000000144
 22
108.2
 32
0.0
 13
-0.0000000000000144
 23
108.2
 33
0.0
  0
POINT
  5
19C5
330
19BE
100
AcDbEntity
  8
Defpoints
 62
     0
100
AcDbPoint
 10
-0.0000000000000144
 20
108.2
 30
0.0
  0
POINT
  5
19C6
330
19BE
100
AcDbEntity
  8
Defpoints
 62
     0
100
AcDbPoint
 10
-0.0000000000000137
 20
113.2
 30
0.0
  0
ENDBLK
  5
19C0
330
19BE
100
AcDbEntity
  8
0
100
AcDbBlockEnd
  0
BLOCK
  5
19C9
330
19C8
100
AcDbEntity
  8
0
100
AcDbBlockBegin
  2
*D5
 70
     1
 10
0.0
 20
0.0
 30
0.0
  3
*D5
  1
*D5
  0
LINE
  5
19CB
330
19C8
100
AcDbEntity
  8
BEMASSUNG
 62
     0
370
    -2
100
AcDbLine
 10
33.11459614787247
 20
120.125
 30
0.0
 11
33.11459614787247
 21
117.75
 31
0.0
  0
LINE
  5
19CC
330
19C8
100
AcDbEntity
  8
BEMASSUNG
 62
     0
370
    -2
100
AcDbLine
 10
38.00540385212745
 20
120.125
 30
0.0
 11
38.00540385212745
 21
117.75
 31
0.0
  0
LINE
  5
19CD
330
19C8
100
AcDbEntity
  8
BEMASSUNG
 62
     0
370
    -2
100
AcDbLine
 10
30.61459614787247
 20
119.0
 30
0.0
 11
28.11459614787247
 21
119.0
 31
0.0
  0
LINE
  5
19CE
330
19C8
100
AcDbEntity
  8
BEMASSUNG
 62
     0
370
    -2
100
AcDbLine
 10
40.50540385212745
 20
119.0
 30
0.0
 11
43.00540385212745
 21
119.0
 31
0.0
  0
SOLID
  5
19CF
330
19C8
100
AcDbEntity
  8
BEMASSUNG
 62
     0
100
AcDbTrace
 10
30.61459614787247
 20
118.5833333333333
 30
0.0
 11
30.61459614787247
 21
119.4166666666667
 31
0.0
 12
33.11459614787247
 22
119.0
 32
0.0
 13
33.11459614787247
 23
119.0
 33
0.0
  0
SOLID
  5
19D0
330
19C8
100
AcDbEntity
  8
BEMASSUNG
 62
     0
100
AcDbTrace
 10
40.50540385212745
 20
119.4166666666667
 30
0.0
 11
40.50540385212745
 21
118.5833333333333
 31
0.0
 12
38.00540385212745
 22
119.0
 32
0.0
 13
38.00540385212745
 23
119.0
 33
0.0
  0
MTEXT
  5
19D1
330
19C8
100
AcDbEntity
  8
BEMASSUNG
 62
     0
100
AcDbMText
 10
42.685959
 20
121.275
 30
0.0
 40
2.5
 41
0.0
 46
0.0
 71
     5
 72
     1
  1
4.89
  7
QCADDimTextStyle
 73
     1
 44
1.0
  0
POINT
  5
19D2
330
19C8
100
AcDbEntity
  8
Defpoints
 62
     0
100
AcDbPoint
 10
33.11459614787247
 20
120.75
 30
0.0
  0
POINT
  5
19D3
330
19C8
100
AcDbEntity
  8
Defpoints
 62
     0
100
AcDbPoint
 10
38.00540385212745
 20
120.75
 30
0.0
  0
POINT
  5
19D4
330
19C8
100
AcDbEntity
  8
Defpoints
 62
     0
100
AcDbPoint
 10
38.00540385212745
 20
119.0
 30
0.0
  0
ENDBLK
  5
19CA
330
19C8
100
AcDbEntity
  8
0
100
AcDbBlockEnd
  0
BLOCK
  5
19D6
330
19D5
100
AcDbEntity
  8
0
100
AcDbBlockBegin
  2
*D6
 70
     1
 10
0.0
 20
0.0
 30
0.0
  3
*D6
  1
*D6
  0
LINE
  5
19D8
330
19D5
100
AcDbEntity
  8
BEMASSUNG
 62
     0
370
    -2
100
AcDbLine
 10
32.61000000000014
 20
121.7749989780899
 30
0.0
 11
32.61000000000014
 21
111.75
 31
0.0
  0
LINE
  5
19D9
330
19D5
100
AcDbEntity
  8
BEMASSUNG
 62
     0
370
    -2
100
AcDbLine
 10
38.50999999999996
 20
121.775
 30
0.0
 11
38.50999999999996
 21
111.75
 31
0.0
  0
LINE
  5
19DA
330
19D5
100
AcDbEntity
  8
BEMASSUNG
 62
     0
370
    -2
100
AcDbLine
 10
30.11000000000014
 20
113.0
 30
0.0
 11
27.61000000000014
 21
113.0
 31
0.0
  0
LINE
  5
19DB
330
19D5
100
AcDbEntity
  8
BEMASSUNG
 62
     0
370
    -2
100
AcDbLine
 10
41.00999999999996
 20
113.0
 30
0.0
 11
43.50999999999996
 21
113.0
 31
0.0
  0
SOLID
  5
19DC
330
19D5
100
AcDbEntity
  8
BEMASSUNG
 62
     0
100
AcDbTrace
 10
30.11000000000014
 20
112.5833333333333
 30
0.0
 11
30.11000000000014
 21
113.4166666666667
 31
0.0
 12
32.61000000000014
 22
113.0
 32
0.0
 13
32.61000000000014
 23
113.0
 33
0.0
  0
SOLID
  5
19DD
330
19D5
100
AcDbEntity
  8
BEMASSUNG
 62
     0
100
AcDbTrace
 10
41.00999999999996
 20
113.4166666666667
 30
0.0
 11
41.00999999999996
 21
112.5833333333333
 31
0.0
 12
38.50999999999996
 22
113.0
 32
0.0
 13
38.50999999999996
 23
113.0
 33
0.0
  0
MTEXT
  5
19DE
330
19D5
100
AcDbEntity
  8
BEMASSUNG
 62
     0
100
AcDbMText
 10
35.56000000000005
 20
107.0625
 30
0.0
 40
2.5
 41
0.0
 46
0.0
 71
     5
 72
     1
  1
5.9
  7
QCADDimTextStyle
 73
     1
 44
1.0
  0
POINT
  5
19DF
330
19D5
100
AcDbEntity
  8
Defpoints
 62
     0
100
AcDbPoint
 10
32.61000000000014
 20
122.3999989780899
 30
0.0
  0
POINT
  5
19E0
330
19D5
100
AcDbEntity
  8
Defpoints
 62
     0
100
AcDbPoint
 10
38.50999999999996
 20
122.4
 30
0.0
  0
POINT
  5
19E1
330
19D5
100
AcDbEntity
  8
Defpoints
 62
     0
100
AcDbPoint
 10
38.50999999999996
 20
113.0
 30
0.0
  0
ENDBLK
  5
19D7
330
19D5
100
AcDbEntity
  8
0
100
AcDbBlockEnd
  0
BLOCK
  5
19E5
330
19E4
100
AcDbEntity
  8
0
100
AcDbBlockBegin
  2
*D7
 70
     1
 10
0.0
 20
0.0
 30
0.0
  3
*D7
  1
*D7
  0
LINE
  5
19E7
330
19E4
100
AcDbEntity
  8
BEMASSUNG
 62
     0
370
    -2
100
AcDbLine
 10
29.955
 20
58.1
 30
0.0
 11
27.19922521892351
 21
58.1
 31
0.0
  0
LINE
  5
19E8
330
19E4
100
AcDbEntity
  8
BEMASSUNG
 62
     0
370
    -2
100
AcDbLine
 10
29.95500000000001
 20
23.0
 30
0.0
 11
27.19922521892351
 21
23.00000000000001
 31
0.0
  0
LINE
  5
19E9
330
19E4
100
AcDbEntity
  8
BEMASSUNG
 62
     0
370
    -2
100
AcDbLine
 10
28.44922521892351
 20
55.6
 30
0.0
 11
28.44922521892351
 21
25.5
 31
0.0
  0
SOLID
  5
19EA
330
19E4
100
AcDbEntity
  8
BEMASSUNG
 62
     0
100
AcDbTrace
 10
28.86589188559018
 20
55.6
 30
0.0
 11
28.03255855225684
 21
55.6
 31
0.0
 12
28.44922521892351
 22
58.1
 32
0.0
 13
28.44922521892351
 23
58.1
 33
0.0
  0
SOLID
  5
19EB
330
19E4
100
AcDbEntity
  8
BEMASSUNG
 62
     0
100
AcDbTrace
 10
28.03255855225684
 20
25.5
 30
0.0
 11
28.86589188559018
 21
25.5
 31
0.0
 12
28.44922521892351
 22
23.0
 32
0.0
 13
28.44922521892351
 23
23.0
 33
0.0
  0
MTEXT
  5
19EC
330
19E4
100
AcDbEntity
  8
BEMASSUNG
 62
     0
100
AcDbMText
 10
26.57422521892351
 20
40.55
 30
0.0
 40
2.5
 41
0.0
 46
0.0
 71
     5
 72
     1
  1
35.1
  7
QCADDimTextStyle
 11
1.012169139259402E-16
 21
1.0
 31
0.0
 73
     1
 44
1.0
  0
POINT
  5
19ED
330
19E4
100
AcDbEntity
  8
Defpoints
 62
     0
100
AcDbPoint
 10
30.58
 20
58.1
 30
0.0
  0
POINT
  5
19EE
330
19E4
100
AcDbEntity
  8
Defpoints
 62
     0
100
AcDbPoint
 10
30.58000000000001
 20
23.0
 30
0.0
  0
POINT
  5
19EF
330
19E4
100
AcDbEntity
  8
Defpoints
 62
     0
100
AcDbPoint
 10
28.44922521892351
 20
23.0
 30
0.0
  0
ENDBLK
  5
19E6
330
19E4
100
AcDbEntity
  8
0
100
AcDbBlockEnd
  0
BLOCK
  5
19F1
330
19F0
100
AcDbEntity
  8
0
100
AcDbBlockBegin
  2
*D8
 70
     1
 10
0.0
 20
0.0
 30
0.0
  3
*D8
  1
*D8
  0
LINE
  5
19F3
330
19F0
100
AcDbEntity
  8
BEMASSUNG
 62
     0
370
    -2
100
AcDbLine
 10
11.57168364850386
 20
60.68020671726809
 30
0.0
 11
19.81573126755148
 21
60.68020671726809
 31
0.0
  0
LINE
  5
19F4
330
19F0
100
AcDbEntity
  8
BEMASSUNG
 62
     0
370
    -2
100
AcDbLine
 10
21.79729124031298
 20
59.15592981514386
 30
0.0
 11
19.81573126755148
 21
60.68020671726809
 31
0.0
  0
MTEXT
  5
19F5
330
19F0
100
AcDbEntity
  8
BEMASSUNG
 62
     0
100
AcDbMText
 10
15.38120745802767
 20
62.55520671726809
 30
0.0
 40
2.5
 41
0.0
 46
0.0
 71
     5
 72
     1
  1
R1.2
  7
QCADDimTextStyle
 73
     1
 44
1.0
  0
SOLID
  5
19F6
330
19F0
100
AcDbEntity
  8
BEMASSUNG
 62
     0
100
AcDbTrace
 10
21.54324508995894
 20
58.82566981968361
 30
0.0
 11
22.05133739066702
 21
59.48618981060412
 31
0.0
 12
23.77885121307448
 22
57.63165291301963
 32
0.0
 13
23.77885121307448
 23
57.63165291301963
 33
0.0
  0
LINE
  5
19F7
330
19F0
100
AcDbEntity
  8
BEMASSUNG
 62
     0
100
AcDbLine
 10
22.23
 20
56.9
 30
0.0
 11
27.23
 21
56.9
 31
0.0
  0
LINE
  5
19F8
330
19F0
100
AcDbEntity
  8
BEMASSUNG
 62
     0
100
AcDbLine
 10
24.73
 20
54.4
 30
0.0
 11
24.73
 21
59.4
 31
0.0
  0
POINT
  5
19F9
330
19F0
100
AcDbEntity
  8
Defpoints
 62
     0
100
AcDbPoint
 10
23.77885121307448
 20
57.63165291301963
 30
0.0
  0
POINT
  5
19FA
330
19F0
100
AcDbEntity
  8
Defpoints
 62
     0
100
AcDbPoint
 10
24.73
 20
56.9
 30
0.0
  0
ENDBLK
  5
19F2
330
19F0
100
AcDbEntity
  8
0
100
AcDbBlockEnd
  0
BLOCK
  5
19FD
330
19FC
100
AcDbEntity
  8
0
100
AcDbBlockBegin
  2
*D9
 70
     1
 10
0.0
 20
0.0
 30
0.0
  3
*D9
  1
*D9
  0
LINE
  5
19FF
330
19FC
100
AcDbEntity
  8
BEMASSUNG
 62
     0
370
    -2
100
AcDbLine
 10
27.17757429032932
 20
60.2483343012168
 30
0.0
 11
24.96820694638732
 21
59.07842150979914
 31
0.0
  0
LINE
  5
1A00
330
19FC
100
AcDbEntity
  8
BEMASSUNG
 62
     0
370
    -2
100
AcDbLine
 10
33.98242570967069
 20
63.85166569878319
 30
0.0
 11
36.19179305361268
 21
65.02157849020085
 31
0.0
  0
MTEXT
  5
1A01
330
19FC
100
AcDbEntity
  8
BEMASSUNG
 62
     0
100
AcDbMText
 10
34.0
 20
66.0
 30
0.0
 40
2.5
 41
0.0
 46
0.0
 71
     5
 72
     1
  1
%%c2.7
  7
QCADDimTextStyle
 11
0.8837469375768007
 21
0.4679651165670648
 31
0.0
 73
     1
 44
1.0
  0
SOLID
  5
1A02
330
19FC
100
AcDbEntity
  8
BEMASSUNG
 62
     0
100
AcDbTrace
 10
33.78744024443441
 20
64.21989358944019
 30
0.0
 11
34.17741117490696
 21
63.48343780812619
 31
0.0
 12
31.77305836572868
 22
62.68175290736554
 32
0.0
 13
31.77305836572868
 23
62.68175290736554
 33
0.0
  0
SOLID
  5
1A03
330
19FC
100
AcDbEntity
  8
BEMASSUNG
 62
     0
100
AcDbTrace
 10
27.37255975556559
 20
59.8801064105598
 30
0.0
 11
26.98258882509304
 21
60.6165621918738
 31
0.0
 12
29.38694163427132
 22
61.41824709263446
 32
0.0
 13
29.38694163427132
 23
61.41824709263446
 33
0.0
  0
LINE
  5
1A04
330
19FC
100
AcDbEntity
  8
BEMASSUNG
 62
     0
100
AcDbLine
 10
28.08
 20
62.05
 30
0.0
 11
33.08
 21
62.05
 31
0.0
  0
LINE
  5
1A05
330
19FC
100
AcDbEntity
  8
BEMASSUNG
 62
     0
100
AcDbLine
 10
30.58
 20
59.55
 30
0.0
 11
30.58
 21
64.55
 31
0.0
  0
POINT
  5
1A06
330
19FC
100
AcDbEntity
  8
Defpoints
 62
     0
100
AcDbPoint
 10
29.38694163427132
 20
61.41824709263446
 30
0.0
  0
POINT
  5
1A07
330
19FC
100
AcDbEntity
  8
Defpoints
 62
     0
100
AcDbPoint
 10
31.77305836572868
 20
62.68175290736554
 30
0.0
  0
ENDBLK
  5
19FE
330
19FC
100
AcDbEntity
  8
0
100
AcDbBlockEnd
  0
BLOCK
  5
1A09
330
1A08
100
AcDbEntity
  8
0
100
AcDbBlockBegin
  2
*D10
 70
     1
 10
0.0
 20
0.0
 30
0.0
  3
*D10
  1
*D10
  0
LINE
  5
1A0B
330
1A08
100
AcDbEntity
  8
BEMASSUNG
 62
     0
370
    -2
100
AcDbLine
 10
30.58
 20
62.05
 30
0.0
 11
30.58
 21
62.05
 31
0.0
  0
MTEXT
  5
1A0C
330
1A08
100
AcDbEntity
  8
BEMASSUNG
 62
     0
100
AcDbMText
 10
28.0
 20
65.0
 30
0.0
 40
2.5
 41
0.0
 46
0.0
 71
     5
 72
     1
  1
%%c5
  7
QCADDimTextStyle
 11
1.421085471520200E-15
 21
1.0
 31
0.0
 73
     1
 44
1.0
  0
SOLID
  5
1A0D
330
1A08
100
AcDbEntity
  8
BEMASSUNG
 62
     0
100
AcDbTrace
 10
30.99666666666667
 20
62.05
 30
0.0
 11
30.16333333333333
 21
62.05
 31
0.0
 12
30.58
 22
64.55
 32
0.0
 13
30.58
 23
64.55
 33
0.0
  0
SOLID
  5
1A0E
330
1A08
100
AcDbEntity
  8
BEMASSUNG
 62
     0
100
AcDbTrace
 10
30.16333333333333
 20
62.05
 30
0.0
 11
30.99666666666667
 21
62.05
 31
0.0
 12
30.57999999999999
 22
59.55
 32
0.0
 13
30.57999999999999
 23
59.55
 33
0.0
  0
POINT
  5
1A0F
330
1A08
100
AcDbEntity
  8
Defpoints
 62
     0
100
AcDbPoint
 10
30.57999999999999
 20
59.55
 30
0.0
  0
POINT
  5
1A10
330
1A08
100
AcDbEntity
  8
Defpoints
 62
     0
100
AcDbPoint
 10
30.58
 20
64.55
 30
0.0
  0
ENDBLK
  5
1A0A
330
1A08
100
AcDbEntity
  8
0
100
AcDbBlockEnd
  0
BLOCK
  5
1A12
330
1A11
100
AcDbEntity
  8
0
100
AcDbBlockBegin
  2
*D11
 70
     1
 10
0.0
 20
0.0
 30
0.0
  3
*D11
  1
*D11
  0
LINE
  5
1A14
330
1A11
100
AcDbEntity
  8
BEMASSUNG
 62
     0
370
    -2
100
AcDbLine
 10
15.18
 20
68.84
 30
0.0
 11
13.88
 21
68.84
 31
0.0
  0
MTEXT
  5
1A15
330
1A11
100
AcDbEntity
  8
BEMASSUNG
 62
     0
100
AcDbMText
 10
16.0
 20
74.0
 30
0.0
 40
2.5
 41
0.0
 46
0.0
 71
     5
 72
     1
  1
%%c6.3
  7
QCADDimTextStyle
 73
     1
 44
1.0
  0
SOLID
  5
1A16
330
1A11
100
AcDbEntity
  8
BEMASSUNG
 62
     0
100
AcDbTrace
 10
13.88
 20
69.25666666666667
 30
0.0
 11
13.88
 21
68.42333333333333
 31
0.0
 12
11.38
 22
68.84
 32
0.0
 13
11.38
 23
68.84
 33
0.0
  0
SOLID
  5
1A17
330
1A11
100
AcDbEntity
  8
BEMASSUNG
 62
     0
100
AcDbTrace
 10
15.18
 20
68.42333333333333
 30
0.0
 11
15.18
 21
69.25666666666667
 31
0.0
 12
17.68
 22
68.84
 32
0.0
 13
17.68
 23
68.84
 33
0.0
  0
POINT
  5
1A18
330
1A11
100
AcDbEntity
  8
Defpoints
 62
     0
100
AcDbPoint
 10
17.68
 20
68.84
 30
0.0
  0
POINT
  5
1A19
330
1A11
100
AcDbEntity
  8
Defpoints
 62
     0
100
AcDbPoint
 10
11.38
 20
68.84
 30
0.0
  0
ENDBLK
  5
1A13
330
1A11
100
AcDbEntity
  8
0
100
AcDbBlockEnd
  0
BLOCK
  5
1A1B
330
1A1A
100
AcDbEntity
  8
0
100
AcDbBlockBegin
  2
*D12
 70
     1
 10
0.0
 20
0.0
 30
0.0
  3
*D12
  1
*D12
  0
LINE
  5
1A1D
330
1A1A
100
AcDbEntity
  8
BEMASSUNG
 62
     0
370
    -2
100
AcDbLine
 10
-0.000000000000032
 20
15.55
 30
0.0
 11
-0.0000000000000314
 21
18.05
 31
0.0
  0
LINE
  5
1A1E
330
1A1A
100
AcDbEntity
  8
BEMASSUNG
 62
     0
370
    -2
100
AcDbLine
 10
-0.0000000000000339
 20
7.85
 30
0.0
 11
-0.0000000000000345
 21
5.35
 31
0.0
  0
MTEXT
  5
1A1F
330
1A1A
100
AcDbEntity
  8
BEMASSUNG
 62
     0
100
AcDbMText
 10
-2.075
 20
15.7
 30
0.0
 40
2.5
 41
0.0
 46
0.0
 71
     5
 72
     1
  1
%%c2.7
  7
QCADDimTextStyle
 11
2.449293598294713E-16
 21
1.0
 31
0.0
 73
     1
 44
1.0
  0
SOLID
  5
1A20
330
1A1A
100
AcDbEntity
  8
BEMASSUNG
 62
     0
100
AcDbTrace
 10
0.4166666666666328
 20
7.85
 30
0.0
 11
-0.4166666666667005
 21
7.85
 31
0.0
 12
-0.0000000000000332
 22
10.35
 32
0.0
 13
-0.0000000000000332
 23
10.35
 33
0.0
  0
SOLID
  5
1A21
330
1A1A
100
AcDbEntity
  8
BEMASSUNG
 62
     0
100
AcDbTrace
 10
-0.4166666666666987
 20
15.55
 30
0.0
 11
0.4166666666666347
 21
15.55
 31
0.0
 12
-0.0000000000000326
 22
13.05
 32
0.0
 13
-0.0000000000000326
 23
13.05
 33
0.0
  0
LINE
  5
1A22
330
1A1A
100
AcDbEntity
  8
BEMASSUNG
 62
     0
100
AcDbLine
 10
-2.500000000000033
 20
11.7
 30
0.0
 11
2.499999999999967
 21
11.7
 31
0.0
  0
LINE
  5
1A23
330
1A1A
100
AcDbEntity
  8
BEMASSUNG
 62
     0
100
AcDbLine
 10
-0.0000000000000329
 20
9.2
 30
0.0
 11
-0.0000000000000329
 21
14.2
 31
0.0
  0
POINT
  5
1A24
330
1A1A
100
AcDbEntity
  8
Defpoints
 62
     0
100
AcDbPoint
 10
-0.0000000000000326
 20
13.05
 30
0.0
  0
POINT
  5
1A25
330
1A1A
100
AcDbEntity
  8
Defpoints
 62
     0
100
AcDbPoint
 10
-0.0000000000000332
 20
10.35
 30
0.0
  0
ENDBLK
  5
1A1C
330
1A1A
100
AcDbEntity
  8
0
100
AcDbBlockEnd
  0
BLOCK
  5
1A27
330
1A26
100
AcDbEntity
  8
0
100
AcDbBlockBegin
  2
*D13
 70
     1
 10
0.0
 20
0.0
 30
0.0
  3
*D13
  1
*D13
  0
LINE
  5
1A29
330
1A26
100
AcDbEntity
  8
BEMASSUNG
 62
     0
370
    -2
100
AcDbLine
 10
30.58
 20
84.17499999999997
 30
0.0
 11
30.58
 21
93.87247728670047
 31
0.0
  0
LINE
  5
1A2A
330
1A26
100
AcDbEntity
  8
BEMASSUNG
 62
     0
370
    -2
100
AcDbLine
 10
-7.45000000000001
 20
84.17499999999995
 30
0.0
 11
-7.45000000000001
 21
93.87247728670047
 31
0.0
  0
LINE
  5
1A2B
330
1A26
100
AcDbEntity
  8
BEMASSUNG
 62
     0
370
    -2
100
AcDbLine
 10
28.08
 20
92.62247728670047
 30
0.0
 11
-4.95000000000001
 21
92.62247728670047
 31
0.0
  0
SOLID
  5
1A2C
330
1A26
100
AcDbEntity
  8
BEMASSUNG
 62
     0
100
AcDbTrace
 10
28.08
 20
92.2058106200338
 30
0.0
 11
28.08
 21
93.03914395336714
 31
0.0
 12
30.58
 22
92.62247728670047
 32
0.0
 13
30.58
 23
92.62247728670047
 33
0.0
  0
SOLID
  5
1A2D
330
1A26
100
AcDbEntity
  8
BEMASSUNG
 62
     0
100
AcDbTrace
 10
-4.95000000000001
 20
93.03914395336714
 30
0.0
 11
-4.95000000000001
 21
92.2058106200338
 31
0.0
 12
-7.45000000000001
 22
92.62247728670047
 32
0.0
 13
-7.45000000000001
 23
92.62247728670047
 33
0.0
  0
MTEXT
  5
1A2E
330
1A26
100
AcDbEntity
  8
BEMASSUNG
 62
     0
100
AcDbMText
 10
11.56499999999999
 20
94.49747728670047
 30
0.0
 40
2.5
 41
0.0
 46
0.0
 71
     5
 72
     1
  1
38.03
  7
QCADDimTextStyle
 73
     1
 44
1.0
  0
POINT
  5
1A2F
330
1A26
100
AcDbEntity
  8
Defpoints
 62
     0
100
AcDbPoint
 10
30.58
 20
83.54999999999997
 30
0.0
  0
POINT
  5
1A30
330
1A26
100
AcDbEntity
  8
Defpoints
 62
     0
100
AcDbPoint
 10
-7.45000000000001
 20
83.54999999999995
 30
0.0
  0
POINT
  5
1A31
330
1A26
100
AcDbEntity
  8
Defpoints
 62
     0
100
AcDbPoint
 10
-7.45000000000001
 20
92.62247728670047
 30
0.0
  0
ENDBLK
  5
1A28
330
1A26
100
AcDbEntity
  8
0
100
AcDbBlockEnd
  0
BLOCK
  5
1A33
330
1A32
100
AcDbEntity
  8
0
100
AcDbBlockBegin
  2
*D14
 70
     1
 10
0.0
 20
0.0
 30
0.0
  3
*D14
  1
*D14
  0
LINE
  5
1A35
330
1A32
100
AcDbEntity
  8
BEMASSUNG
 62
     0
370
    -2
100
AcDbLine
 10
35.55999995073815
 20
0.625
 30
0.0
 11
35.55999995073815
 21
3.946942812056854
 31
0.0
  0
LINE
  5
1A36
330
1A32
100
AcDbEntity
  8
BEMASSUNG
 62
     0
370
    -2
100
AcDbLine
 10
43.01
 20
-2.375
 30
0.0
 11
43.01
 21
3.946942812056854
 31
0.0
  0
LINE
  5
1A37
330
1A32
100
AcDbEntity
  8
BEMASSUNG
 62
     0
370
    -2
100
AcDbLine
 10
38.05999995073815
 20
2.696942812056854
 30
0.0
 11
40.51
 21
2.696942812056854
 31
0.0
  0
SOLID
  5
1A38
330
1A32
100
AcDbEntity
  8
BEMASSUNG
 62
     0
100
AcDbTrace
 10
38.05999995073815
 20
3.11360947872352
 30
0.0
 11
38.05999995073815
 21
2.280276145390187
 31
0.0
 12
35.55999995073815
 22
2.696942812056854
 32
0.0
 13
35.55999995073815
 23
2.696942812056854
 33
0.0
  0
SOLID
  5
1A39
330
1A32
100
AcDbEntity
  8
BEMASSUNG
 62
     0
100
AcDbTrace
 10
40.51
 20
2.280276145390187
 30
0.0
 11
40.51
 21
3.11360947872352
 31
0.0
 12
43.01
 22
2.696942812056854
 32
0.0
 13
43.01
 23
2.696942812056854
 33
0.0
  0
MTEXT
  5
1A3A
330
1A32
100
AcDbEntity
  8
BEMASSUNG
 62
     0
100
AcDbMText
 10
39.28499997536908
 20
4.771943
 30
0.0
 40
2.5
 41
0.0
 46
0.0
 71
     5
 72
     1
  1
7.45
  7
QCADDimTextStyle
 73
     1
 44
1.0
  0
POINT
  5
1A3B
330
1A32
100
AcDbEntity
  8
Defpoints
 62
     0
100
AcDbPoint
 10
35.55999995073815
 20
0.0
 30
0.0
  0
POINT
  5
1A3C
330
1A32
100
AcDbEntity
  8
Defpoints
 62
     0
100
AcDbPoint
 10
43.01
 20
-3.0
 30
0.0
  0
POINT
  5
1A3D
330
1A32
100
AcDbEntity
  8
Defpoints
 62
     0
100
AcDbPoint
 10
43.01
 20
2.696942812056854
 30
0.0
  0
ENDBLK
  5
1A34
330
1A32
100
AcDbEntity
  8
0
100
AcDbBlockEnd
  0
BLOCK
  5
1A3F
330
1A3E
100
AcDbEntity
  8
0
100
AcDbBlockBegin
  2
*D15
 70
     1
 10
0.0
 20
0.0
 30
0.0
  3
*D15
  1
*D15
  0
LINE
  5
1A41
330
1A3E
100
AcDbEntity
  8
BEMASSUNG
 62
     0
370
    -2
100
AcDbLine
 10
34.93499995073815
 20
0.0000000000000001
 30
0.0
 11
29.75
 21
0.0000000000000006
 31
0.0
  0
LINE
  5
1A42
330
1A3E
100
AcDbEntity
  8
BEMASSUNG
 62
     0
370
    -2
100
AcDbLine
 10
34.93499995073815
 20
-3.0
 30
0.0
 11
29.75
 21
-3.0
 31
0.0
  0
LINE
  5
1A43
330
1A3E
100
AcDbEntity
  8
BEMASSUNG
 62
     0
370
    -2
100
AcDbLine
 10
31.0
 20
2.5
 30
0.0
 11
31.0
 21
5.0
 31
0.0
  0
LINE
  5
1A44
330
1A3E
100
AcDbEntity
  8
BEMASSUNG
 62
     0
370
    -2
100
AcDbLine
 10
31.0
 20
-5.5
 30
0.0
 11
31.0
 21
-8.0
 31
0.0
  0
SOLID
  5
1A45
330
1A3E
100
AcDbEntity
  8
BEMASSUNG
 62
     0
100
AcDbTrace
 10
30.58333333333333
 20
2.5
 30
0.0
 11
31.41666666666667
 21
2.5
 31
0.0
 12
31.0
 22
0.0000000000000004
 32
0.0
 13
31.0
 23
0.0000000000000004
 33
0.0
  0
SOLID
  5
1A46
330
1A3E
100
AcDbEntity
  8
BEMASSUNG
 62
     0
100
AcDbTrace
 10
31.41666666666667
 20
-5.5
 30
0.0
 11
30.58333333333333
 21
-5.5
 31
0.0
 12
31.0
 22
-3.0
 32
0.0
 13
31.0
 23
-3.0
 33
0.0
  0
MTEXT
  5
1A47
330
1A3E
100
AcDbEntity
  8
BEMASSUNG
 62
     0
100
AcDbMText
 10
29.125
 20
-1.5
 30
0.0
 40
2.5
 41
0.0
 46
0.0
 71
     5
 72
     1
  1
3
  7
QCADDimTextStyle
 11
0.0
 21
1.0
 31
0.0
 73
     1
 44
1.0
  0
POINT
  5
1A48
330
1A3E
100
AcDbEntity
  8
Defpoints
 62
     0
100
AcDbPoint
 10
35.55999995073815
 20
0.0
 30
0.0
  0
POINT
  5
1A49
330
1A3E
100
AcDbEntity
  8
Defpoints
 62
     0
100
AcDbPoint
 10
35.55999995073815
 20
-3.0
 30
0.0
  0
POINT
  5
1A4A
330
1A3E
100
AcDbEntity
  8
Defpoints
 62
     0
100
AcDbPoint
 10
31.0
 20
-3.0
 30
0.0
  0
ENDBLK
  5
1A40
330
1A3E
100
AcDbEntity
  8
0
100
AcDbBlockEnd
  0
BLOCK
  5
1A4C
330
1A4B
100
AcDbEntity
  8
0
100
AcDbBlockBegin
  2
*D16
 70
     1
 10
0.0
 20
0.0
 30
0.0
  3
*D16
  1
*D16
  0
LINE
  5
1A4E
330
1A4B
100
AcDbEntity
  8
BEMASSUNG
 62
     0
370
    -2
100
AcDbLine
 10
-0.625
 20
110.7
 30
0.0
 11
-55.25000000000008
 21
110.7
 31
0.0
  0
LINE
  5
1A4F
330
1A4B
100
AcDbEntity
  8
BEMASSUNG
 62
     0
370
    -2
100
AcDbLine
 10
-8.075
 20
-2.999999999999999
 30
0.0
 11
-55.25000000000009
 21
-2.999999999999996
 31
0.0
  0
LINE
  5
1A50
330
1A4B
100
AcDbEntity
  8
BEMASSUNG
 62
     0
370
    -2
100
AcDbLine
 10
-54.00000000000008
 20
108.2
 30
0.0
 11
-54.00000000000009
 21
-0.4999999999999964
 31
0.0
  0
SOLID
  5
1A51
330
1A4B
100
AcDbEntity
  8
BEMASSUNG
 62
     0
100
AcDbTrace
 10
-53.58333333333341
 20
108.2
 30
0.0
 11
-54.41666666666674
 21
108.2
 31
0.0
 12
-54.00000000000008
 22
110.7
 32
0.0
 13
-54.00000000000008
 23
110.7
 33
0.0
  0
SOLID
  5
1A52
330
1A4B
100
AcDbEntity
  8
BEMASSUNG
 62
     0
100
AcDbTrace
 10
-54.41666666666675
 20
-0.4999999999999964
 30
0.0
 11
-53.58333333333342
 21
-0.4999999999999964
 31
0.0
 12
-54.00000000000009
 22
-2.999999999999996
 32
0.0
 13
-54.00000000000009
 23
-2.999999999999996
 33
0.0
  0
MTEXT
  5
1A53
330
1A4B
100
AcDbEntity
  8
BEMASSUNG
 62
     0
100
AcDbMText
 10
-55.87500000000009
 20
53.85
 30
0.0
 40
2.5
 41
0.0
 46
0.0
 71
     5
 72
     1
  1
113.7
  7
QCADDimTextStyle
 11
6.249276479860159E-17
 21
1.0
 31
0.0
 73
     1
 44
1.0
  0
POINT
  5
1A54
330
1A4B
100
AcDbEntity
  8
Defpoints
 62
     0
100
AcDbPoint
 10
0.0
 20
110.7
 30
0.0
  0
POINT
  5
1A55
330
1A4B
100
AcDbEntity
  8
Defpoints
 62
     0
100
AcDbPoint
 10
-7.449999999999999
 20
-2.999999999999999
 30
0.0
  0
POINT
  5
1A56
330
1A4B
100
AcDbEntity
  8
Defpoints
 62
     0
100
AcDbPoint
 10
-54.00000000000009
 20
-2.999999999999996
 30
0.0
  0
ENDBLK
  5
1A4D
330
1A4B
100
AcDbEntity
  8
0
100
AcDbBlockEnd
  0
BLOCK
  5
1A58
330
1A57
100
AcDbEntity
  8
0
100
AcDbBlockBegin
  2
*D17
 70
     1
 10
0.0
 20
0.0
 30
0.0
  3
*D17
  1
*D17
  0
LINE
  5
1A5A
330
1A57
100
AcDbEntity
  8
BEMASSUNG
 62
     0
370
    -2
100
AcDbLine
 10
11.505
 20
113.0
 30
0.0
 11
-60.24999999999999
 21
113.0
 31
0.0
  0
LINE
  5
1A5B
330
1A57
100
AcDbEntity
  8
BEMASSUNG
 62
     0
370
    -2
100
AcDbLine
 10
-8.075
 20
-2.999999999999999
 30
0.0
 11
-60.25
 21
-2.999999999999996
 31
0.0
  0
LINE
  5
1A5C
330
1A57
100
AcDbEntity
  8
BEMASSUNG
 62
     0
370
    -2
100
AcDbLine
 10
-58.99999999999999
 20
110.5
 30
0.0
 11
-59.0
 21
-0.499999999999996
 31
0.0
  0
SOLID
  5
1A5D
330
1A57
100
AcDbEntity
  8
BEMASSUNG
 62
     0
100
AcDbTrace
 10
-58.58333333333333
 20
110.5
 30
0.0
 11
-59.41666666666666
 21
110.5
 31
0.0
 12
-58.99999999999999
 22
113.0
 32
0.0
 13
-58.99999999999999
 23
113.0
 33
0.0
  0
SOLID
  5
1A5E
330
1A57
100
AcDbEntity
  8
BEMASSUNG
 62
     0
100
AcDbTrace
 10
-59.41666666666666
 20
-0.499999999999996
 30
0.0
 11
-58.58333333333334
 21
-0.499999999999996
 31
0.0
 12
-59.0
 22
-2.999999999999996
 32
0.0
 13
-59.0
 23
-2.999999999999996
 33
0.0
  0
MTEXT
  5
1A5F
330
1A57
100
AcDbEntity
  8
BEMASSUNG
 62
     0
100
AcDbMText
 10
-60.875
 20
55.0
 30
0.0
 40
2.5
 41
0.0
 46
0.0
 71
     5
 72
     1
  1
116
  7
QCADDimTextStyle
 11
6.125368411725002E-17
 21
1.0
 31
0.0
 73
     1
 44
1.0
  0
POINT
  5
1A60
330
1A57
100
AcDbEntity
  8
Defpoints
 62
     0
100
AcDbPoint
 10
12.13
 20
113.0
 30
0.0
  0
POINT
  5
1A61
330
1A57
100
AcDbEntity
  8
Defpoints
 62
     0
100
AcDbPoint
 10
-7.449999999999999
 20
-2.999999999999999
 30
0.0
  0
POINT
  5
1A62
330
1A57
100
AcDbEntity
  8
Defpoints
 62
     0
100
AcDbPoint
 10
-59.0
 20
-2.999999999999996
 30
0.0
  0
ENDBLK
  5
1A59
330
1A57
100
AcDbEntity
  8
0
100
AcDbBlockEnd
  0
BLOCK
  5
1A64
330
1A63
100
AcDbEntity
  8
0
100
AcDbBlockBegin
  2
*D18
 70
     1
 10
0.0
 20
0.0
 30
0.0
  3
*D18
  1
*D18
  0
LINE
  5
1A66
330
1A63
100
AcDbEntity
  8
BEMASSUNG
 62
     0
370
    -2
100
AcDbLine
 10
23.53
 20
82.92499999999998
 30
0.0
 11
23.53
 21
75.75
 31
0.0
  0
LINE
  5
1A67
330
1A63
100
AcDbEntity
  8
BEMASSUNG
 62
     0
370
    -2
100
AcDbLine
 10
37.63
 20
82.92499999999997
 30
0.0
 11
37.63
 21
75.75
 31
0.0
  0
LINE
  5
1A68
330
1A63
100
AcDbEntity
  8
BEMASSUNG
 62
     0
370
    -2
100
AcDbLine
 10
26.03
 20
77.0
 30
0.0
 11
35.13
 21
77.0
 31
0.0
  0
SOLID
  5
1A69
330
1A63
100
AcDbEntity
  8
BEMASSUNG
 62
     0
100
AcDbTrace
 10
26.03
 20
77.41666666666667
 30
0.0
 11
26.03
 21
76.58333333333333
 31
0.0
 12
23.53
 22
77.0
 32
0.0
 13
23.53
 23
77.0
 33
0.0
  0
SOLID
  5
1A6A
330
1A63
100
AcDbEntity
  8
BEMASSUNG
 62
     0
100
AcDbTrace
 10
35.13
 20
76.58333333333333
 30
0.0
 11
35.13
 21
77.41666666666667
 31
0.0
 12
37.63
 22
77.0
 32
0.0
 13
37.63
 23
77.0
 33
0.0
  0
MTEXT
  5
1A6B
330
1A63
100
AcDbEntity
  8
BEMASSUNG
 62
     0
100
AcDbMText
 10
30.58
 20
78.875
 30
0.0
 40
2.5
 41
0.0
 46
0.0
 71
     5
 72
     1
  1
14.1
  7
QCADDimTextStyle
 73
     1
 44
1.0
  0
POINT
  5
1A6C
330
1A63
100
AcDbEntity
  8
Defpoints
 62
     0
100
AcDbPoint
 10
23.53
 20
83.54999999999998
 30
0.0
  0
POINT
  5
1A6D
330
1A63
100
AcDbEntity
  8
Defpoints
 62
     0
100
AcDbPoint
 10
37.63
 20
83.54999999999997
 30
0.0
  0
POINT
  5
1A6E
330
1A63
100
AcDbEntity
  8
Defpoints
 62
     0
100
AcDbPoint
 10
37.63
 20
77.0
 30
0.0
  0
ENDBLK
  5
1A65
330
1A63
100
AcDbEntity
  8
0
100
AcDbBlockEnd
  0
BLOCK
  5
1A70
330
1A6F
100
AcDbEntity
  8
0
100
AcDbBlockBegin
  2
*D19
 70
     1
 10
0.0
 20
0.0
 30
0.0
  3
*D19
  1
*D19
  0
LINE
  5
1A72
330
1A6F
100
AcDbEntity
  8
BEMASSUNG
 62
     0
370
    -2
100
AcDbLine
 10
31.205
 20
40.54999999999999
 30
0.0
 11
56.25
 21
40.54999999999998
 31
0.0
  0
LINE
  5
1A73
330
1A6F
100
AcDbEntity
  8
BEMASSUNG
 62
     0
370
    -2
100
AcDbLine
 10
43.635
 20
-3.0
 30
0.0
 11
56.25
 21
-3.000000000000001
 31
0.0
  0
LINE
  5
1A74
330
1A6F
100
AcDbEntity
  8
BEMASSUNG
 62
     0
370
    -2
100
AcDbLine
 10
55.0
 20
38.04999999999998
 30
0.0
 11
55.0
 21
-0.5000000000000009
 31
0.0
  0
SOLID
  5
1A75
330
1A6F
100
AcDbEntity
  8
BEMASSUNG
 62
     0
100
AcDbTrace
 10
55.41666666666666
 20
38.04999999999998
 30
0.0
 11
54.58333333333334
 21
38.04999999999998
 31
0.0
 12
55.0
 22
40.54999999999998
 32
0.0
 13
55.0
 23
40.54999999999998
 33
0.0
  0
SOLID
  5
1A76
330
1A6F
100
AcDbEntity
  8
BEMASSUNG
 62
     0
100
AcDbTrace
 10
54.58333333333334
 20
-0.5000000000000009
 30
0.0
 11
55.41666666666666
 21
-0.5000000000000009
 31
0.0
 12
55.0
 22
-3.000000000000001
 32
0.0
 13
55.0
 23
-3.000000000000001
 33
0.0
  0
MTEXT
  5
1A77
330
1A6F
100
AcDbEntity
  8
BEMASSUNG
 62
     0
100
AcDbMText
 10
53.125
 20
18.77499999999999
 30
0.0
 40
2.5
 41
0.0
 46
0.0
 71
     5
 72
     1
  1
43.55
  7
QCADDimTextStyle
 11
0.0
 21
1.0
 31
0.0
 73
     1
 44
1.0
  0
POINT
  5
1A78
330
1A6F
100
AcDbEntity
  8
Defpoints
 62
     0
100
AcDbPoint
 10
30.58
 20
40.54999999999999
 30
0.0
  0
POINT
  5
1A79
330
1A6F
100
AcDbEntity
  8
Defpoints
 62
     0
100
AcDbPoint
 10
43.01
 20
-3.0
 30
0.0
  0
POINT
  5
1A7A
330
1A6F
100
AcDbEntity
  8
Defpoints
 62
     0
100
AcDbPoint
 10
55.0
 20
-3.000000000000001
 30
0.0
  0
ENDBLK
  5
1A71
330
1A6F
100
AcDbEntity
  8
0
100
AcDbBlockEnd
  0
BLOCK
  5
1A7C
330
1A7B
100
AcDbEntity
  8
0
100
AcDbBlockBegin
  2
*D20
 70
     1
 10
0.0
 20
0.0
 30
0.0
  3
*D20
  1
*D20
  0
LINE
  5
1A7E
330
1A7B
100
AcDbEntity
  8
BEMASSUNG
 62
     0
370
    -2
100
AcDbLine
 10
31.205
 20
62.04999999999999
 30
0.0
 11
61.24999999999993
 21
62.04999999999998
 31
0.0
  0
LINE
  5
1A7F
330
1A7B
100
AcDbEntity
  8
BEMASSUNG
 62
     0
370
    -2
100
AcDbLine
 10
43.635
 20
-3.0
 30
0.0
 11
61.24999999999992
 21
-3.000000000000001
 31
0.0
  0
LINE
  5
1A80
330
1A7B
100
AcDbEntity
  8
BEMASSUNG
 62
     0
370
    -2
100
AcDbLine
 10
59.99999999999993
 20
59.54999999999998
 30
0.0
 11
59.99999999999992
 21
-0.5000000000000009
 31
0.0
  0
SOLID
  5
1A81
330
1A7B
100
AcDbEntity
  8
BEMASSUNG
 62
     0
100
AcDbTrace
 10
60.41666666666659
 20
59.54999999999998
 30
0.0
 11
59.58333333333326
 21
59.54999999999998
 31
0.0
 12
59.99999999999993
 22
62.04999999999998
 32
0.0
 13
59.99999999999993
 23
62.04999999999998
 33
0.0
  0
SOLID
  5
1A82
330
1A7B
100
AcDbEntity
  8
BEMASSUNG
 62
     0
100
AcDbTrace
 10
59.58333333333326
 20
-0.5000000000000009
 30
0.0
 11
60.41666666666659
 21
-0.5000000000000009
 31
0.0
 12
59.99999999999992
 22
-3.000000000000001
 32
0.0
 13
59.99999999999992
 23
-3.000000000000001
 33
0.0
  0
MTEXT
  5
1A83
330
1A7B
100
AcDbEntity
  8
BEMASSUNG
 62
     0
100
AcDbMText
 10
58.12499999999993
 20
29.52499999999999
 30
0.0
 40
2.5
 41
0.0
 46
0.0
 71
     5
 72
     1
  1
65.05
  7
QCADDimTextStyle
 11
1.092302437755727E-16
 21
1.0
 31
0.0
 73
     1
 44
1.0
  0
POINT
  5
1A84
330
1A7B
100
AcDbEntity
  8
Defpoints
 62
     0
100
AcDbPoint
 10
30.58
 20
62.04999999999999
 30
0.0
  0
POINT
  5
1A85
330
1A7B
100
AcDbEntity
  8
Defpoints
 62
     0
100
AcDbPoint
 10
43.01
 20
-3.0
 30
0.0
  0
POINT
  5
1A86
330
1A7B
100
AcDbEntity
  8
Defpoints
 62
     0
100
AcDbPoint
 10
59.99999999999992
 20
-3.000000000000001
 30
0.0
  0
ENDBLK
  5
1A7D
330
1A7B
100
AcDbEntity
  8
0
100
AcDbBlockEnd
  0
BLOCK
  5
1A88
330
1A87
100
AcDbEntity
  8
0
100
AcDbBlockBegin
  2
*D21
 70
     1
 10
0.0
 20
0.0
 30
0.0
  3
*D21
  1
*D21
  0
LINE
  5
1A8A
330
1A87
100
AcDbEntity
  8
BEMASSUNG
 62
     0
370
    -2
100
AcDbLine
 10
31.205
 20
83.54999999999997
 30
0.0
 11
66.25
 21
83.54999999999997
 31
0.0
  0
LINE
  5
1A8B
330
1A87
100
AcDbEntity
  8
BEMASSUNG
 62
     0
370
    -2
100
AcDbLine
 10
43.635
 20
-3.0
 30
0.0
 11
66.25
 21
-3.000000000000001
 31
0.0
  0
LINE
  5
1A8C
330
1A87
100
AcDbEntity
  8
BEMASSUNG
 62
     0
370
    -2
100
AcDbLine
 10
65.0
 20
81.04999999999997
 30
0.0
 11
65.0
 21
-0.5000000000000013
 31
0.0
  0
SOLID
  5
1A8D
330
1A87
100
AcDbEntity
  8
BEMASSUNG
 62
     0
100
AcDbTrace
 10
65.41666666666667
 20
81.04999999999997
 30
0.0
 11
64.58333333333333
 21
81.04999999999997
 31
0.0
 12
65.0
 22
83.54999999999997
 32
0.0
 13
65.0
 23
83.54999999999997
 33
0.0
  0
SOLID
  5
1A8E
330
1A87
100
AcDbEntity
  8
BEMASSUNG
 62
     0
100
AcDbTrace
 10
64.58333333333333
 20
-0.5000000000000013
 30
0.0
 11
65.41666666666667
 21
-0.5000000000000013
 31
0.0
 12
65.0
 22
-3.000000000000001
 32
0.0
 13
65.0
 23
-3.000000000000001
 33
0.0
  0
MTEXT
  5
1A8F
330
1A87
100
AcDbEntity
  8
BEMASSUNG
 62
     0
100
AcDbMText
 10
63.125
 20
40.27499999999998
 30
0.0
 40
2.5
 41
0.0
 46
0.0
 71
     5
 72
     1
  1
86.55
  7
QCADDimTextStyle
 11
0.0
 21
1.0
 31
0.0
 73
     1
 44
1.0
  0
POINT
  5
1A90
330
1A87
100
AcDbEntity
  8
Defpoints
 62
     0
100
AcDbPoint
 10
30.58
 20
83.54999999999997
 30
0.0
  0
POINT
  5
1A91
330
1A87
100
AcDbEntity
  8
Defpoints
 62
     0
100
AcDbPoint
 10
43.01
 20
-3.0
 30
0.0
  0
POINT
  5
1A92
330
1A87
100
AcDbEntity
  8
Defpoints
 62
     0
100
AcDbPoint
 10
65.0
 20
-3.000000000000001
 30
0.0
  0
ENDBLK
  5
1A89
330
1A87
100
AcDbEntity
  8
0
100
AcDbBlockEnd
  0
BLOCK
  5
1A94
330
1A93
100
AcDbEntity
  8
0
100
AcDbBlockBegin
  2
*D22
 70
     1
 10
0.0
 20
0.0
 30
0.0
  3
*D22
  1
*D22
  0
LINE
  5
1A96
330
1A93
100
AcDbEntity
  8
BEMASSUNG
 62
     0
370
    -2
100
AcDbLine
 10
40.63999999999998
 20
11.075
 30
0.0
 11
40.63999999999998
 21
7.75
 31
0.0
  0
LINE
  5
1A97
330
1A93
100
AcDbEntity
  8
BEMASSUNG
 62
     0
370
    -2
100
AcDbLine
 10
43.01
 20
11.075
 30
0.0
 11
43.01
 21
7.75
 31
0.0
  0
LINE
  5
1A98
330
1A93
100
AcDbEntity
  8
BEMASSUNG
 62
     0
370
    -2
100
AcDbLine
 10
38.13999999999998
 20
9.0
 30
0.0
 11
35.63999999999998
 21
9.0
 31
0.0
  0
LINE
  5
1A99
330
1A93
100
AcDbEntity
  8
BEMASSUNG
 62
     0
370
    -2
100
AcDbLine
 10
45.51
 20
9.0
 30
0.0
 11
48.01
 21
9.0
 31
0.0
  0
SOLID
  5
1A9A
330
1A93
100
AcDbEntity
  8
BEMASSUNG
 62
     0
100
AcDbTrace
 10
38.13999999999998
 20
8.583333333333334
 30
0.0
 11
38.13999999999998
 21
9.416666666666666
 31
0.0
 12
40.63999999999998
 22
9.0
 32
0.0
 13
40.63999999999998
 23
9.0
 33
0.0
  0
SOLID
  5
1A9B
330
1A93
100
AcDbEntity
  8
BEMASSUNG
 62
     0
100
AcDbTrace
 10
45.51
 20
9.416666666666666
 30
0.0
 11
45.51
 21
8.583333333333334
 31
0.0
 12
43.01
 22
9.0
 32
0.0
 13
43.01
 23
9.0
 33
0.0
  0
MTEXT
  5
1A9C
330
1A93
100
AcDbEntity
  8
BEMASSUNG
 62
     0
100
AcDbMText
 10
46.225
 20
11.075
 30
0.0
 40
2.5
 41
0.0
 46
0.0
 71
     5
 72
     1
  1
2.37
  7
QCADDimTextStyle
 73
     1
 44
1.0
  0
POINT
  5
1A9D
330
1A93
100
AcDbEntity
  8
Defpoints
 62
     0
100
AcDbPoint
 10
40.63999999999998
 20
11.7
 30
0.0
  0
POINT
  5
1A9E
330
1A93
100
AcDbEntity
  8
Defpoints
 62
     0
100
AcDbPoint
 10
43.01
 20
11.7
 30
0.0
  0
POINT
  5
1A9F
330
1A93
100
AcDbEntity
  8
Defpoints
 62
     0
100
AcDbPoint
 10
43.01
 20
9.0
 30
0.0
  0
ENDBLK
  5
1A95
330
1A93
100
AcDbEntity
  8
0
100
AcDbBlockEnd
  0
BLOCK
  5
1AA1
330
1AA0
100
AcDbEntity
  8
0
100
AcDbBlockBegin
  2
*D23
 70
     1
 10
0.0
 20
0.0
 30
0.0
  3
*D23
  1
*D23
  0
LINE
  5
1AA3
330
1AA0
100
AcDbEntity
  8
BEMASSUNG
 62
     0
370
    -2
100
AcDbLine
 10
35.55999999999998
 20
12.325
 30
0.0
 11
35.55999999999998
 21
16.25
 31
0.0
  0
LINE
  5
1AA4
330
1AA0
100
AcDbEntity
  8
BEMASSUNG
 62
     0
370
    -2
100
AcDbLine
 10
43.01
 20
12.325
 30
0.0
 11
43.01
 21
16.25
 31
0.0
  0
LINE
  5
1AA5
330
1AA0
100
AcDbEntity
  8
BEMASSUNG
 62
     0
370
    -2
100
AcDbLine
 10
38.05999999999998
 20
15.0
 30
0.0
 11
40.51
 21
15.0
 31
0.0
  0
SOLID
  5
1AA6
330
1AA0
100
AcDbEntity
  8
BEMASSUNG
 62
     0
100
AcDbTrace
 10
38.05999999999998
 20
15.41666666666667
 30
0.0
 11
38.05999999999998
 21
14.58333333333333
 31
0.0
 12
35.55999999999998
 22
15.0
 32
0.0
 13
35.55999999999998
 23
15.0
 33
0.0
  0
SOLID
  5
1AA7
330
1AA0
100
AcDbEntity
  8
BEMASSUNG
 62
     0
100
AcDbTrace
 10
40.51
 20
14.58333333333333
 30
0.0
 11
40.51
 21
15.41666666666667
 31
0.0
 12
43.01
 22
15.0
 32
0.0
 13
43.01
 23
15.0
 33
0.0
  0
MTEXT
  5
1AA8
330
1AA0
100
AcDbEntity
  8
BEMASSUNG
 62
     0
100
AcDbMText
 10
39.28499999999999
 20
18.4375
 30
0.0
 40
2.5
 41
0.0
 46
0.0
 71
     5
 72
     1
  1
7.45
  7
QCADDimTextStyle
 73
     1
 44
1.0
  0
POINT
  5
1AA9
330
1AA0
100
AcDbEntity
  8
Defpoints
 62
     0
100
AcDbPoint
 10
35.55999999999998
 20
11.7
 30
0.0
  0
POINT
  5
1AAA
330
1AA0
100
AcDbEntity
  8
Defpoints
 62
     0
100
AcDbPoint
 10
43.01
 20
11.7
 30
0.0
  0
POINT
  5
1AAB
330
1AA0
100
AcDbEntity
  8
Defpoints
 62
     0
100
AcDbPoint
 10
43.01
 20
15.0
 30
0.0
  0
ENDBLK
  5
1AA2
330
1AA0
100
AcDbEntity
  8
0
100
AcDbBlockEnd
  0
BLOCK
  5
1AAD
330
1AAC
100
AcDbEntity
  8
0
100
AcDbBlockBegin
  2
*D24
 70
     1
 10
0.0
 20
0.0
 30
0.0
  3
*D24
  1
*D24
  0
LINE
  5
1AAF
330
1AAC
100
AcDbEntity
  8
BEMASSUNG
 62
     0
370
    -2
100
AcDbLine
 10
30.47999999999998
 20
12.325
 30
0.0
 11
30.47999999999998
 21
20.25
 31
0.0
  0
LINE
  5
1AB0
330
1AAC
100
AcDbEntity
  8
BEMASSUNG
 62
     0
370
    -2
100
AcDbLine
 10
43.01
 20
12.325
 30
0.0
 11
43.01
 21
20.25
 31
0.0
  0
LINE
  5
1AB1
330
1AAC
100
AcDbEntity
  8
BEMASSUNG
 62
     0
370
    -2
100
AcDbLine
 10
32.97999999999998
 20
19.0
 30
0.0
 11
40.51
 21
19.0
 31
0.0
  0
SOLID
  5
1AB2
330
1AAC
100
AcDbEntity
  8
BEMASSUNG
 62
     0
100
AcDbTrace
 10
32.97999999999998
 20
19.41666666666667
 30
0.0
 11
32.97999999999998
 21
18.58333333333333
 31
0.0
 12
30.47999999999998
 22
19.0
 32
0.0
 13
30.47999999999998
 23
19.0
 33
0.0
  0
SOLID
  5
1AB3
330
1AAC
100
AcDbEntity
  8
BEMASSUNG
 62
     0
100
AcDbTrace
 10
40.51
 20
18.58333333333333
 30
0.0
 11
40.51
 21
19.41666666666667
 31
0.0
 12
43.01
 22
19.0
 32
0.0
 13
43.01
 23
19.0
 33
0.0
  0
MTEXT
  5
1AB4
330
1AAC
100
AcDbEntity
  8
BEMASSUNG
 62
     0
100
AcDbMText
 10
36.74499999999999
 20
20.875
 30
0.0
 40
2.5
 41
0.0
 46
0.0
 71
     5
 72
     1
  1
12.53
  7
QCADDimTextStyle
 73
     1
 44
1.0
  0
POINT
  5
1AB5
330
1AAC
100
AcDbEntity
  8
Defpoints
 62
     0
100
AcDbPoint
 10
30.47999999999998
 20
11.7
 30
0.0
  0
POINT
  5
1AB6
330
1AAC
100
AcDbEntity
  8
Defpoints
 62
     0
100
AcDbPoint
 10
43.01
 20
11.7
 30
0.0
  0
POINT
  5
1AB7
330
1AAC
100
AcDbEntity
  8
Defpoints
 62
     0
100
AcDbPoint
 10
43.01
 20
19.0
 30
0.0
  0
ENDBLK
  5
1AAE
330
1AAC
100
AcDbEntity
  8
0
100
AcDbBlockEnd
  0
BLOCK
  5
1AB9
330
1AB8
100
AcDbEntity
  8
0
100
AcDbBlockBegin
  2
*D25
 70
     1
 10
0.0
 20
0.0
 30
0.0
  3
*D25
  1
*D25
  0
LINE
  5
1ABB
330
1AB8
100
AcDbEntity
  8
BEMASSUNG
 62
     0
370
    -2
100
AcDbLine
 10
1.47
 20
28.455
 30
0.0
 11
1.47
 21
31.25
 31
0.0
  0
LINE
  5
1ABC
330
1AB8
100
AcDbEntity
  8
BEMASSUNG
 62
     0
370
    -2
100
AcDbLine
 10
-7.450000000000004
 20
28.45499999999998
 30
0.0
 11
-7.450000000000004
 21
31.25
 31
0.0
  0
LINE
  5
1ABD
330
1AB8
100
AcDbEntity
  8
BEMASSUNG
 62
     0
370
    -2
100
AcDbLine
 10
-1.03
 20
30.0
 30
0.0
 11
-4.950000000000004
 21
30.0
 31
0.0
  0
SOLID
  5
1ABE
330
1AB8
100
AcDbEntity
  8
BEMASSUNG
 62
     0
100
AcDbTrace
 10
-1.03
 20
29.58333333333333
 30
0.0
 11
-1.03
 21
30.41666666666667
 31
0.0
 12
1.47
 22
30.0
 32
0.0
 13
1.47
 23
30.0
 33
0.0
  0
SOLID
  5
1ABF
330
1AB8
100
AcDbEntity
  8
BEMASSUNG
 62
     0
100
AcDbTrace
 10
-4.950000000000004
 20
30.41666666666667
 30
0.0
 11
-4.950000000000004
 21
29.58333333333333
 31
0.0
 12
-7.450000000000004
 22
30.0
 32
0.0
 13
-7.450000000000004
 23
30.0
 33
0.0
  0
MTEXT
  5
1AC0
330
1AB8
100
AcDbEntity
  8
BEMASSUNG
 62
     0
100
AcDbMText
 10
-2.990000000000002
 20
31.875
 30
0.0
 40
2.5
 41
0.0
 46
0.0
 71
     5
 72
     1
  1
8.92
  7
QCADDimTextStyle
 73
     1
 44
1.0
  0
POINT
  5
1AC1
330
1AB8
100
AcDbEntity
  8
Defpoints
 62
     0
100
AcDbPoint
 10
1.47
 20
27.83
 30
0.0
  0
POINT
  5
1AC2
330
1AB8
100
AcDbEntity
  8
Defpoints
 62
     0
100
AcDbPoint
 10
-7.450000000000004
 20
27.82999999999998
 30
0.0
  0
POINT
  5
1AC3
330
1AB8
100
AcDbEntity
  8
Defpoints
 62
     0
100
AcDbPoint
 10
-7.450000000000004
 20
30.0
 30
0.0
  0
ENDBLK
  5
1ABA
330
1AB8
100
AcDbEntity
  8
0
100
AcDbBlockEnd
  0
BLOCK
  5
1AC5
330
1AC4
100
AcDbEntity
  8
0
100
AcDbBlockBegin
  2
*D26
 70
     1
 10
0.0
 20
0.0
 30
0.0
  3
*D26
  1
*D26
  0
LINE
  5
1AC7
330
1AC4
100
AcDbEntity
  8
BEMASSUNG
 62
     0
370
    -2
100
AcDbLine
 10
1.22
 20
38.355
 30
0.0
 11
1.22
 21
41.25
 31
0.0
  0
LINE
  5
1AC8
330
1AC4
100
AcDbEntity
  8
BEMASSUNG
 62
     0
370
    -2
100
AcDbLine
 10
-7.450000000000006
 20
38.35499999999999
 30
0.0
 11
-7.450000000000006
 21
41.25
 31
0.0
  0
LINE
  5
1AC9
330
1AC4
100
AcDbEntity
  8
BEMASSUNG
 62
     0
370
    -2
100
AcDbLine
 10
-1.28
 20
40.0
 30
0.0
 11
-4.950000000000006
 21
40.0
 31
0.0
  0
SOLID
  5
1ACA
330
1AC4
100
AcDbEntity
  8
BEMASSUNG
 62
     0
100
AcDbTrace
 10
-1.28
 20
39.58333333333334
 30
0.0
 11
-1.28
 21
40.41666666666666
 31
0.0
 12
1.22
 22
40.0
 32
0.0
 13
1.22
 23
40.0
 33
0.0
  0
SOLID
  5
1ACB
330
1AC4
100
AcDbEntity
  8
BEMASSUNG
 62
     0
100
AcDbTrace
 10
-4.950000000000006
 20
40.41666666666666
 30
0.0
 11
-4.950000000000006
 21
39.58333333333334
 31
0.0
 12
-7.450000000000006
 22
40.0
 32
0.0
 13
-7.450000000000006
 23
40.0
 33
0.0
  0
MTEXT
  5
1ACC
330
1AC4
100
AcDbEntity
  8
BEMASSUNG
 62
     0
100
AcDbMText
 10
-3.115000000000003
 20
43.4375
 30
0.0
 40
2.5
 41
0.0
 46
0.0
 71
     5
 72
     1
  1
8.67
  7
QCADDimTextStyle
 73
     1
 44
1.0
  0
POINT
  5
1ACD
330
1AC4
100
AcDbEntity
  8
Defpoints
 62
     0
100
AcDbPoint
 10
1.22
 20
37.73
 30
0.0
  0
POINT
  5
1ACE
330
1AC4
100
AcDbEntity
  8
Defpoints
 62
     0
100
AcDbPoint
 10
-7.450000000000006
 20
37.72999999999999
 30
0.0
  0
POINT
  5
1ACF
330
1AC4
100
AcDbEntity
  8
Defpoints
 62
     0
100
AcDbPoint
 10
-7.450000000000006
 20
40.0
 30
0.0
  0
ENDBLK
  5
1AC6
330
1AC4
100
AcDbEntity
  8
0
100
AcDbBlockEnd
  0
BLOCK
  5
1AD1
330
1AD0
100
AcDbEntity
  8
0
100
AcDbBlockBegin
  2
*D27
 70
     1
 10
0.0
 20
0.0
 30
0.0
  3
*D27
  1
*D27
  0
LINE
  5
1AD3
330
1AD0
100
AcDbEntity
  8
BEMASSUNG
 62
     0
370
    -2
100
AcDbLine
 10
11.08
 20
48.515
 30
0.0
 11
11.08
 21
51.25
 31
0.0
  0
LINE
  5
1AD4
330
1AD0
100
AcDbEntity
  8
BEMASSUNG
 62
     0
370
    -2
100
AcDbLine
 10
-7.450000000000005
 20
48.51499999999999
 30
0.0
 11
-7.450000000000005
 21
51.25
 31
0.0
  0
LINE
  5
1AD5
330
1AD0
100
AcDbEntity
  8
BEMASSUNG
 62
     0
370
    -2
100
AcDbLine
 10
8.58
 20
50.0
 30
0.0
 11
-4.950000000000005
 21
50.0
 31
0.0
  0
SOLID
  5
1AD6
330
1AD0
100
AcDbEntity
  8
BEMASSUNG
 62
     0
100
AcDbTrace
 10
8.58
 20
49.58333333333334
 30
0.0
 11
8.58
 21
50.41666666666666
 31
0.0
 12
11.08
 22
50.0
 32
0.0
 13
11.08
 23
50.0
 33
0.0
  0
SOLID
  5
1AD7
330
1AD0
100
AcDbEntity
  8
BEMASSUNG
 62
     0
100
AcDbTrace
 10
-4.950000000000005
 20
50.41666666666666
 30
0.0
 11
-4.950000000000005
 21
49.58333333333334
 31
0.0
 12
-7.450000000000005
 22
50.0
 32
0.0
 13
-7.450000000000005
 23
50.0
 33
0.0
  0
MTEXT
  5
1AD8
330
1AD0
100
AcDbEntity
  8
BEMASSUNG
 62
     0
100
AcDbMText
 10
1.814999999999998
 20
51.875
 30
0.0
 40
2.5
 41
0.0
 46
0.0
 71
     5
 72
     1
  1
18.53
  7
QCADDimTextStyle
 73
     1
 44
1.0
  0
POINT
  5
1AD9
330
1AD0
100
AcDbEntity
  8
Defpoints
 62
     0
100
AcDbPoint
 10
11.08
 20
47.89
 30
0.0
  0
POINT
  5
1ADA
330
1AD0
100
AcDbEntity
  8
Defpoints
 62
     0
100
AcDbPoint
 10
-7.450000000000005
 20
47.88999999999999
 30
0.0
  0
POINT
  5
1ADB
330
1AD0
100
AcDbEntity
  8
Defpoints
 62
     0
100
AcDbPoint
 10
-7.450000000000005
 20
50.0
 30
0.0
  0
ENDBLK
  5
1AD2
330
1AD0
100
AcDbEntity
  8
0
100
AcDbBlockEnd
  0
BLOCK
  5
1ADD
330
1ADC
100
AcDbEntity
  8
0
100
AcDbBlockBegin
  2
*D28
 70
     1
 10
0.0
 20
0.0
 30
0.0
  3
*D28
  1
*D28
  0
LINE
  5
1ADF
330
1ADC
100
AcDbEntity
  8
BEMASSUNG
 62
     0
370
    -2
100
AcDbLine
 10
14.53
 20
66.025
 30
0.0
 11
14.53
 21
60.75
 31
0.0
  0
LINE
  5
1AE0
330
1ADC
100
AcDbEntity
  8
BEMASSUNG
 62
     0
370
    -2
100
AcDbLine
 10
-7.450000000000008
 20
66.025
 30
0.0
 11
-7.450000000000008
 21
60.75
 31
0.0
  0
LINE
  5
1AE1
330
1ADC
100
AcDbEntity
  8
BEMASSUNG
 62
     0
370
    -2
100
AcDbLine
 10
12.03
 20
62.0
 30
0.0
 11
-4.950000000000008
 21
62.0
 31
0.0
  0
SOLID
  5
1AE2
330
1ADC
100
AcDbEntity
  8
BEMASSUNG
 62
     0
100
AcDbTrace
 10
12.03
 20
61.58333333333334
 30
0.0
 11
12.03
 21
62.41666666666666
 31
0.0
 12
14.53
 22
62.0
 32
0.0
 13
14.53
 23
62.0
 33
0.0
  0
SOLID
  5
1AE3
330
1ADC
100
AcDbEntity
  8
BEMASSUNG
 62
     0
100
AcDbTrace
 10
-4.950000000000008
 20
62.41666666666666
 30
0.0
 11
-4.950000000000008
 21
61.58333333333334
 31
0.0
 12
-7.450000000000008
 22
62.0
 32
0.0
 13
-7.450000000000008
 23
62.0
 33
0.0
  0
MTEXT
  5
1AE4
330
1ADC
100
AcDbEntity
  8
BEMASSUNG
 62
     0
100
AcDbMText
 10
3.539999999999996
 20
63.875
 30
0.0
 40
2.5
 41
0.0
 46
0.0
 71
     5
 72
     1
  1
21.98
  7
QCADDimTextStyle
 73
     1
 44
1.0
  0
POINT
  5
1AE5
330
1ADC
100
AcDbEntity
  8
Defpoints
 62
     0
100
AcDbPoint
 10
14.53
 20
66.65
 30
0.0
  0
POINT
  5
1AE6
330
1ADC
100
AcDbEntity
  8
Defpoints
 62
     0
100
AcDbPoint
 10
-7.450000000000008
 20
66.65
 30
0.0
  0
POINT
  5
1AE7
330
1ADC
100
AcDbEntity
  8
Defpoints
 62
     0
100
AcDbPoint
 10
-7.450000000000008
 20
62.0
 30
0.0
  0
ENDBLK
  5
1ADE
330
1ADC
100
AcDbEntity
  8
0
100
AcDbBlockEnd
  0
BLOCK
  5
1AE9
330
1AE8
100
AcDbEntity
  8
0
100
AcDbBlockBegin
  2
*D29
 70
     1
 10
0.0
 20
0.0
 30
0.0
  3
*D29
  1
*D29
  0
LINE
  5
1AEB
330
1AE8
100
AcDbEntity
  8
BEMASSUNG
 62
     0
370
    -2
100
AcDbLine
 10
-2.937575109009957
 20
70.59081384070598
 30
0.0
 11
-5.257351482173092
 21
71.52282112528808
 31
0.0
  0
LINE
  5
1AEC
330
1AE8
100
AcDbEntity
  8
BEMASSUNG
 62
     0
370
    -2
100
AcDbLine
 10
5.877575109009957
 20
67.04918615929401
 30
0.0
 11
8.197351482173092
 21
66.11717887471191
 31
0.0
  0
MTEXT
  5
1AED
330
1AE8
100
AcDbEntity
  8
BEMASSUNG
 62
     0
100
AcDbMText
 10
2.669005
 20
71.559832
 30
0.0
 40
2.5
 41
0.0
 46
0.0
 71
     5
 72
     1
  1
%%c4.5
  7
QCADDimTextStyle
 11
0.9279105492652542
 21
-0.3728029138328378
 31
0.0
 73
     1
 44
1.0
  0
SOLID
  5
1AEE
330
1AE8
100
AcDbEntity
  8
BEMASSUNG
 62
     0
100
AcDbTrace
 10
6.032909656440306
 20
67.4358155548212
 30
0.0
 11
5.722240561579608
 21
66.66255676376682
 31
0.0
 12
3.557798735846821
 22
67.98119344387611
 32
0.0
 13
3.557798735846821
 23
67.98119344387611
 33
0.0
  0
SOLID
  5
1AEF
330
1AE8
100
AcDbEntity
  8
BEMASSUNG
 62
     0
100
AcDbTrace
 10
-3.092909656440306
 20
70.20418444517878
 30
0.0
 11
-2.782240561579608
 21
70.97744323623317
 31
0.0
 12
-0.6177987358468215
 22
69.65880655612388
 32
0.0
 13
-0.6177987358468215
 23
69.65880655612388
 33
0.0
  0
LINE
  5
1AF0
330
1AE8
100
AcDbEntity
  8
BEMASSUNG
 62
     0
100
AcDbLine
 10
-1.03
 20
68.82
 30
0.0
 11
3.97
 21
68.82
 31
0.0
  0
LINE
  5
1AF1
330
1AE8
100
AcDbEntity
  8
BEMASSUNG
 62
     0
100
AcDbLine
 10
1.47
 20
66.32
 30
0.0
 11
1.47
 21
71.32
 31
0.0
  0
POINT
  5
1AF2
330
1AE8
100
AcDbEntity
  8
Defpoints
 62
     0
100
AcDbPoint
 10
-0.6177987358468215
 20
69.65880655612388
 30
0.0
  0
POINT
  5
1AF3
330
1AE8
100
AcDbEntity
  8
Defpoints
 62
     0
100
AcDbPoint
 10
3.557798735846821
 20
67.98119344387611
 30
0.0
  0
ENDBLK
  5
1AEA
330
1AE8
100
AcDbEntity
  8
0
100
AcDbBlockEnd
  0
BLOCK
  5
1AF5
330
1AF4
100
AcDbEntity
  8
0
100
AcDbBlockBegin
  2
*D30
 70
     1
 10
0.0
 20
0.0
 30
0.0
  3
*D30
  1
*D30
  0
LINE
  5
1AF7
330
1AF4
100
AcDbEntity
  8
BEMASSUNG
 62
     0
370
    -2
100
AcDbLine
 10
-2.53871430411679
 20
80.1082349140509
 30
0.0
 11
-4.887910744189784
 21
80.9633817353327
 31
0.0
  0
LINE
  5
1AF8
330
1AF4
100
AcDbEntity
  8
BEMASSUNG
 62
     0
370
    -2
100
AcDbLine
 10
4.97871430411679
 20
77.37176508594912
 30
0.0
 11
7.327910744189784
 21
76.51661826466731
 31
0.0
  0
MTEXT
  5
1AF9
330
1AF4
100
AcDbEntity
  8
BEMASSUNG
 62
     0
100
AcDbMText
 10
2.36136
 20
81.501897
 30
0.0
 40
2.5
 41
0.0
 46
0.0
 71
     5
 72
     1
  1
%%c3
  7
QCADDimTextStyle
 11
0.9396785760291977
 21
-0.3420587285127209
 31
0.0
 73
     1
 44
1.0
  0
SOLID
  5
1AFA
330
1AF4
100
AcDbEntity
  8
BEMASSUNG
 62
     0
100
AcDbTrace
 10
5.121238774330424
 20
77.76329782596129
 30
0.0
 11
4.836189833903155
 21
76.98023234593695
 31
0.0
 12
2.629517864043796
 22
78.22691190723093
 32
0.0
 13
2.629517864043796
 23
78.22691190723093
 33
0.0
  0
SOLID
  5
1AFB
330
1AF4
100
AcDbEntity
  8
BEMASSUNG
 62
     0
100
AcDbTrace
 10
-2.681238774330424
 20
79.71670217403873
 30
0.0
 11
-2.396189833903156
 21
80.49976765406306
 31
0.0
 12
-0.1895178640437958
 22
79.25308809276909
 32
0.0
 13
-0.1895178640437958
 23
79.25308809276909
 33
0.0
  0
LINE
  5
1AFC
330
1AF4
100
AcDbEntity
  8
BEMASSUNG
 62
     0
100
AcDbLine
 10
-1.28
 20
78.74000000000001
 30
0.0
 11
3.72
 21
78.74000000000001
 31
0.0
  0
LINE
  5
1AFD
330
1AF4
100
AcDbEntity
  8
BEMASSUNG
 62
     0
100
AcDbLine
 10
1.22
 20
76.24000000000001
 30
0.0
 11
1.22
 21
81.24000000000001
 31
0.0
  0
POINT
  5
1AFE
330
1AF4
100
AcDbEntity
  8
Defpoints
 62
     0
100
AcDbPoint
 10
-0.1895178640437958
 20
79.25308809276909
 30
0.0
  0
POINT
  5
1AFF
330
1AF4
100
AcDbEntity
  8
Defpoints
 62
     0
100
AcDbPoint
 10
2.629517864043796
 20
78.22691190723093
 30
0.0
  0
ENDBLK
  5
1AF6
330
1AF4
100
AcDbEntity
  8
0
100
AcDbBlockEnd
  0
BLOCK
  5
1B01
330
1B00
100
AcDbEntity
  8
0
100
AcDbBlockBegin
  2
*D31
 70
     1
 10
0.0
 20
0.0
 30
0.0
  3
*D31
  1
*D31
  0
LINE
  5
1B03
330
1B00
100
AcDbEntity
  8
BEMASSUNG
 62
     0
370
    -2
100
AcDbLine
 10
-1.325
 20
25.64
 30
0.0
 11
-15.25
 21
25.64
 31
0.0
  0
LINE
  5
1B04
330
1B00
100
AcDbEntity
  8
BEMASSUNG
 62
     0
370
    -2
100
AcDbLine
 10
-14.625
 20
-3.0
 30
0.0
 11
-15.25
 21
-3.0
 31
0.0
  0
LINE
  5
1B05
330
1B00
100
AcDbEntity
  8
BEMASSUNG
 62
     0
370
    -2
100
AcDbLine
 10
-14.0
 20
23.14
 30
0.0
 11
-14.0
 21
-0.5
 31
0.0
  0
SOLID
  5
1B06
330
1B00
100
AcDbEntity
  8
BEMASSUNG
 62
     0
100
AcDbTrace
 10
-13.58333333333333
 20
23.14
 30
0.0
 11
-14.41666666666666
 21
23.14
 31
0.0
 12
-14.0
 22
25.64
 32
0.0
 13
-14.0
 23
25.64
 33
0.0
  0
SOLID
  5
1B07
330
1B00
100
AcDbEntity
  8
BEMASSUNG
 62
     0
100
AcDbTrace
 10
-14.41666666666667
 20
-0.5
 30
0.0
 11
-13.58333333333333
 21
-0.5
 31
0.0
 12
-14.0
 22
-3.0
 32
0.0
 13
-14.0
 23
-3.0
 33
0.0
  0
MTEXT
  5
1B08
330
1B00
100
AcDbEntity
  8
BEMASSUNG
 62
     0
100
AcDbMText
 10
-15.875
 20
11.32
 30
0.0
 40
2.5
 41
0.0
 46
0.0
 71
     5
 72
     1
  1
28.64
  7
QCADDimTextStyle
 11
6.202363266062327E-17
 21
1.0
 31
0.0
 73
     1
 44
1.0
  0
POINT
  5
1B09
330
1B00
100
AcDbEntity
  8
Defpoints
 62
     0
100
AcDbPoint
 10
-0.7
 20
25.64
 30
0.0
  0
POINT
  5
1B0A
330
1B00
100
AcDbEntity
  8
Defpoints
 62
     0
100
AcDbPoint
 10
-14.0
 20
-3.0
 30
0.0
  0
POINT
  5
1B0B
330
1B00
100
AcDbEntity
  8
Defpoints
 62
     0
100
AcDbPoint
 10
-14.0
 20
-3.0
 30
0.0
  0
ENDBLK
  5
1B02
330
1B00
100
AcDbEntity
  8
0
100
AcDbBlockEnd
  0
BLOCK
  5
1B0D
330
1B0C
100
AcDbEntity
  8
0
100
AcDbBlockBegin
  2
*D32
 70
     1
 10
0.0
 20
0.0
 30
0.0
  3
*D32
  1
*D32
  0
LINE
  5
1B0F
330
1B0C
100
AcDbEntity
  8
BEMASSUNG
 62
     0
370
    -2
100
AcDbLine
 10
-1.575
 20
35.56
 30
0.0
 11
-20.25
 21
35.56
 31
0.0
  0
LINE
  5
1B10
330
1B0C
100
AcDbEntity
  8
BEMASSUNG
 62
     0
370
    -2
100
AcDbLine
 10
-19.625
 20
-3.0
 30
0.0
 11
-20.25
 21
-3.0
 31
0.0
  0
LINE
  5
1B11
330
1B0C
100
AcDbEntity
  8
BEMASSUNG
 62
     0
370
    -2
100
AcDbLine
 10
-19.0
 20
33.06
 30
0.0
 11
-19.0
 21
-0.5
 31
0.0
  0
SOLID
  5
1B12
330
1B0C
100
AcDbEntity
  8
BEMASSUNG
 62
     0
100
AcDbTrace
 10
-18.58333333333333
 20
33.06
 30
0.0
 11
-19.41666666666666
 21
33.06
 31
0.0
 12
-19.0
 22
35.56
 32
0.0
 13
-19.0
 23
35.56
 33
0.0
  0
SOLID
  5
1B13
330
1B0C
100
AcDbEntity
  8
BEMASSUNG
 62
     0
100
AcDbTrace
 10
-19.41666666666667
 20
-0.4999999999999999
 30
0.0
 11
-18.58333333333333
 21
-0.5
 31
0.0
 12
-19.0
 22
-3.0
 32
0.0
 13
-19.0
 23
-3.0
 33
0.0
  0
MTEXT
  5
1B14
330
1B0C
100
AcDbEntity
  8
BEMASSUNG
 62
     0
100
AcDbMText
 10
-20.875
 20
16.28
 30
0.0
 40
2.5
 41
0.0
 46
0.0
 71
     5
 72
     1
  1
38.56
  7
QCADDimTextStyle
 11
9.213469084026195E-17
 21
1.0
 31
0.0
 73
     1
 44
1.0
  0
POINT
  5
1B15
330
1B0C
100
AcDbEntity
  8
Defpoints
 62
     0
100
AcDbPoint
 10
-0.95
 20
35.56
 30
0.0
  0
POINT
  5
1B16
330
1B0C
100
AcDbEntity
  8
Defpoints
 62
     0
100
AcDbPoint
 10
-19.0
 20
-3.0
 30
0.0
  0
POINT
  5
1B17
330
1B0C
100
AcDbEntity
  8
Defpoints
 62
     0
100
AcDbPoint
 10
-19.0
 20
-3.0
 30
0.0
  0
ENDBLK
  5
1B0E
330
1B0C
100
AcDbEntity
  8
0
100
AcDbBlockEnd
  0
BLOCK
  5
1B19
330
1B18
100
AcDbEntity
  8
0
100
AcDbBlockBegin
  2
*D33
 70
     1
 10
0.0
 20
0.0
 30
0.0
  3
*D33
  1
*D33
  0
LINE
  5
1B1B
330
1B18
100
AcDbEntity
  8
BEMASSUNG
 62
     0
370
    -2
100
AcDbLine
 10
8.285
 20
45.72
 30
0.0
 11
-25.25
 21
45.72
 31
0.0
  0
LINE
  5
1B1C
330
1B18
100
AcDbEntity
  8
BEMASSUNG
 62
     0
370
    -2
100
AcDbLine
 10
-24.625
 20
-3.0
 30
0.0
 11
-25.25
 21
-3.0
 31
0.0
  0
LINE
  5
1B1D
330
1B18
100
AcDbEntity
  8
BEMASSUNG
 62
     0
370
    -2
100
AcDbLine
 10
-24.0
 20
43.22
 30
0.0
 11
-24.0
 21
-0.5
 31
0.0
  0
SOLID
  5
1B1E
330
1B18
100
AcDbEntity
  8
BEMASSUNG
 62
     0
100
AcDbTrace
 10
-23.58333333333333
 20
43.22
 30
0.0
 11
-24.41666666666666
 21
43.22
 31
0.0
 12
-24.0
 22
45.72
 32
0.0
 13
-24.0
 23
45.72
 33
0.0
  0
SOLID
  5
1B1F
330
1B18
100
AcDbEntity
  8
BEMASSUNG
 62
     0
100
AcDbTrace
 10
-24.41666666666667
 20
-0.4999999999999999
 30
0.0
 11
-23.58333333333333
 21
-0.5
 31
0.0
 12
-24.0
 22
-3.0
 32
0.0
 13
-24.0
 23
-3.0
 33
0.0
  0
MTEXT
  5
1B20
330
1B18
100
AcDbEntity
  8
BEMASSUNG
 62
     0
100
AcDbMText
 10
-25.875
 20
21.36
 30
0.0
 40
2.5
 41
0.0
 46
0.0
 71
     5
 72
     1
  1
48.72
  7
QCADDimTextStyle
 11
7.292105252053573E-17
 21
1.0
 31
0.0
 73
     1
 44
1.0
  0
POINT
  5
1B21
330
1B18
100
AcDbEntity
  8
Defpoints
 62
     0
100
AcDbPoint
 10
8.91
 20
45.72
 30
0.0
  0
POINT
  5
1B22
330
1B18
100
AcDbEntity
  8
Defpoints
 62
     0
100
AcDbPoint
 10
-24.0
 20
-3.0
 30
0.0
  0
POINT
  5
1B23
330
1B18
100
AcDbEntity
  8
Defpoints
 62
     0
100
AcDbPoint
 10
-24.0
 20
-3.0
 30
0.0
  0
ENDBLK
  5
1B1A
330
1B18
100
AcDbEntity
  8
0
100
AcDbBlockEnd
  0
BLOCK
  5
1B25
330
1B24
100
AcDbEntity
  8
0
100
AcDbBlockBegin
  2
*D34
 70
     1
 10
0.0
 20
0.0
 30
0.0
  3
*D34
  1
*D34
  0
LINE
  5
1B27
330
1B24
100
AcDbEntity
  8
BEMASSUNG
 62
     0
370
    -2
100
AcDbLine
 10
-1.575
 20
55.88
 30
0.0
 11
-30.25
 21
55.88
 31
0.0
  0
LINE
  5
1B28
330
1B24
100
AcDbEntity
  8
BEMASSUNG
 62
     0
370
    -2
100
AcDbLine
 10
-29.625
 20
-3.0
 30
0.0
 11
-30.25
 21
-3.0
 31
0.0
  0
LINE
  5
1B29
330
1B24
100
AcDbEntity
  8
BEMASSUNG
 62
     0
370
    -2
100
AcDbLine
 10
-29.0
 20
53.38
 30
0.0
 11
-29.0
 21
-0.5
 31
0.0
  0
SOLID
  5
1B2A
330
1B24
100
AcDbEntity
  8
BEMASSUNG
 62
     0
100
AcDbTrace
 10
-28.58333333333333
 20
53.38
 30
0.0
 11
-29.41666666666666
 21
53.38
 31
0.0
 12
-29.0
 22
55.88
 32
0.0
 13
-29.0
 23
55.88
 33
0.0
  0
SOLID
  5
1B2B
330
1B24
100
AcDbEntity
  8
BEMASSUNG
 62
     0
100
AcDbTrace
 10
-29.41666666666667
 20
-0.5
 30
0.0
 11
-28.58333333333333
 21
-0.5
 31
0.0
 12
-29.0
 22
-3.0
 32
0.0
 13
-29.0
 23
-3.0
 33
0.0
  0
MTEXT
  5
1B2C
330
1B24
100
AcDbEntity
  8
BEMASSUNG
 62
     0
100
AcDbMText
 10
-30.875
 20
26.44
 30
0.0
 40
2.5
 41
0.0
 46
0.0
 71
     5
 72
     1
  1
58.88
  7
QCADDimTextStyle
 11
6.033820786006285E-17
 21
1.0
 31
0.0
 73
     1
 44
1.0
  0
POINT
  5
1B2D
330
1B24
100
AcDbEntity
  8
Defpoints
 62
     0
100
AcDbPoint
 10
-0.95
 20
55.88
 30
0.0
  0
POINT
  5
1B2E
330
1B24
100
AcDbEntity
  8
Defpoints
 62
     0
100
AcDbPoint
 10
-29.0
 20
-3.0
 30
0.0
  0
POINT
  5
1B2F
330
1B24
100
AcDbEntity
  8
Defpoints
 62
     0
100
AcDbPoint
 10
-29.0
 20
-3.0
 30
0.0
  0
ENDBLK
  5
1B26
330
1B24
100
AcDbEntity
  8
0
100
AcDbBlockEnd
  0
BLOCK
  5
1B31
330
1B30
100
AcDbEntity
  8
0
100
AcDbBlockBegin
  2
*D35
 70
     1
 10
0.0
 20
0.0
 30
0.0
  3
*D35
  1
*D35
  0
LINE
  5
1B33
330
1B30
100
AcDbEntity
  8
BEMASSUNG
 62
     0
370
    -2
100
AcDbLine
 10
-1.325
 20
68.82
 30
0.0
 11
-35.24999999999999
 21
68.82
 31
0.0
  0
LINE
  5
1B34
330
1B30
100
AcDbEntity
  8
BEMASSUNG
 62
     0
370
    -2
100
AcDbLine
 10
-34.625
 20
-3.0
 30
0.0
 11
-35.25
 21
-3.0
 31
0.0
  0
LINE
  5
1B35
330
1B30
100
AcDbEntity
  8
BEMASSUNG
 62
     0
370
    -2
100
AcDbLine
 10
-33.99999999999999
 20
66.32
 30
0.0
 11
-34.0
 21
-0.5
 31
0.0
  0
SOLID
  5
1B36
330
1B30
100
AcDbEntity
  8
BEMASSUNG
 62
     0
100
AcDbTrace
 10
-33.58333333333333
 20
66.32
 30
0.0
 11
-34.41666666666666
 21
66.32
 31
0.0
 12
-33.99999999999999
 22
68.82
 32
0.0
 13
-33.99999999999999
 23
68.82
 33
0.0
  0
SOLID
  5
1B37
330
1B30
100
AcDbEntity
  8
BEMASSUNG
 62
     0
100
AcDbTrace
 10
-34.41666666666666
 20
-0.4999999999999999
 30
0.0
 11
-33.58333333333334
 21
-0.5
 31
0.0
 12
-34.0
 22
-3.0
 32
0.0
 13
-34.0
 23
-3.0
 33
0.0
  0
MTEXT
  5
1B38
330
1B30
100
AcDbEntity
  8
BEMASSUNG
 62
     0
100
AcDbMText
 10
-35.875
 20
32.91
 30
0.0
 40
2.5
 41
0.0
 46
0.0
 71
     5
 72
     1
  1
71.82
  7
QCADDimTextStyle
 11
9.893382564189644E-17
 21
1.0
 31
0.0
 73
     1
 44
1.0
  0
POINT
  5
1B39
330
1B30
100
AcDbEntity
  8
Defpoints
 62
     0
100
AcDbPoint
 10
-0.7
 20
68.82
 30
0.0
  0
POINT
  5
1B3A
330
1B30
100
AcDbEntity
  8
Defpoints
 62
     0
100
AcDbPoint
 10
-34.0
 20
-3.0
 30
0.0
  0
POINT
  5
1B3B
330
1B30
100
AcDbEntity
  8
Defpoints
 62
     0
100
AcDbPoint
 10
-34.0
 20
-3.0
 30
0.0
  0
ENDBLK
  5
1B32
330
1B30
100
AcDbEntity
  8
0
100
AcDbBlockEnd
  0
BLOCK
  5
1B3D
330
1B3C
100
AcDbEntity
  8
0
100
AcDbBlockBegin
  2
*D36
 70
     1
 10
0.0
 20
0.0
 30
0.0
  3
*D36
  1
*D36
  0
LINE
  5
1B3F
330
1B3C
100
AcDbEntity
  8
BEMASSUNG
 62
     0
370
    -2
100
AcDbLine
 10
-1.575
 20
78.74000000000001
 30
0.0
 11
-40.24999999999999
 21
78.74000000000001
 31
0.0
  0
LINE
  5
1B40
330
1B3C
100
AcDbEntity
  8
BEMASSUNG
 62
     0
370
    -2
100
AcDbLine
 10
-39.625
 20
-3.0
 30
0.0
 11
-40.25
 21
-3.0
 31
0.0
  0
LINE
  5
1B41
330
1B3C
100
AcDbEntity
  8
BEMASSUNG
 62
     0
370
    -2
100
AcDbLine
 10
-38.99999999999999
 20
76.24000000000001
 30
0.0
 11
-39.0
 21
-0.5
 31
0.0
  0
SOLID
  5
1B42
330
1B3C
100
AcDbEntity
  8
BEMASSUNG
 62
     0
100
AcDbTrace
 10
-38.58333333333333
 20
76.24000000000001
 30
0.0
 11
-39.41666666666666
 21
76.24000000000001
 31
0.0
 12
-38.99999999999999
 22
78.74000000000001
 32
0.0
 13
-38.99999999999999
 23
78.74000000000001
 33
0.0
  0
SOLID
  5
1B43
330
1B3C
100
AcDbEntity
  8
BEMASSUNG
 62
     0
100
AcDbTrace
 10
-39.41666666666666
 20
-0.4999999999999999
 30
0.0
 11
-38.58333333333334
 21
-0.5
 31
0.0
 12
-39.0
 22
-3.0
 32
0.0
 13
-39.0
 23
-3.0
 33
0.0
  0
MTEXT
  5
1B44
330
1B3C
100
AcDbEntity
  8
BEMASSUNG
 62
     0
100
AcDbMText
 10
-40.875
 20
37.87
 30
0.0
 40
2.5
 41
0.0
 46
0.0
 71
     5
 72
     1
  1
81.74
  7
QCADDimTextStyle
 11
8.692717589431124E-17
 21
1.0
 31
0.0
 73
     1
 44
1.0
  0
POINT
  5
1B45
330
1B3C
100
AcDbEntity
  8
Defpoints
 62
     0
100
AcDbPoint
 10
-0.95
 20
78.74000000000001
 30
0.0
  0
POINT
  5
1B46
330
1B3C
100
AcDbEntity
  8
Defpoints
 62
     0
100
AcDbPoint
 10
-39.0
 20
-3.0
 30
0.0
  0
POINT
  5
1B47
330
1B3C
100
AcDbEntity
  8
Defpoints
 62
     0
100
AcDbPoint
 10
-39.0
 20
-3.0
 30
0.0
  0
ENDBLK
  5
1B3E
330
1B3C
100
AcDbEntity
  8
0
100
AcDbBlockEnd
  0
BLOCK
  5
1B49
330
1B48
100
AcDbEntity
  8
0
100
AcDbBlockBegin
  2
*D37
 70
     1
 10
0.0
 20
0.0
 30
0.0
  3
*D37
  1
*D37
  0
LINE
  5
1B4B
330
1B48
100
AcDbEntity
  8
BEMASSUNG
 62
     0
370
    -2
100
AcDbLine
 10
8.285
 20
88.9
 30
0.0
 11
-45.24999999999999
 21
88.9
 31
0.0
  0
LINE
  5
1B4C
330
1B48
100
AcDbEntity
  8
BEMASSUNG
 62
     0
370
    -2
100
AcDbLine
 10
-44.625
 20
-3.0
 30
0.0
 11
-45.25
 21
-3.0
 31
0.0
  0
LINE
  5
1B4D
330
1B48
100
AcDbEntity
  8
BEMASSUNG
 62
     0
370
    -2
100
AcDbLine
 10
-43.99999999999999
 20
86.4
 30
0.0
 11
-44.0
 21
-0.5
 31
0.0
  0
SOLID
  5
1B4E
330
1B48
100
AcDbEntity
  8
BEMASSUNG
 62
     0
100
AcDbTrace
 10
-43.58333333333333
 20
86.4
 30
0.0
 11
-44.41666666666666
 21
86.4
 31
0.0
 12
-43.99999999999999
 22
88.9
 32
0.0
 13
-43.99999999999999
 23
88.9
 33
0.0
  0
SOLID
  5
1B4F
330
1B48
100
AcDbEntity
  8
BEMASSUNG
 62
     0
100
AcDbTrace
 10
-44.41666666666666
 20
-0.4999999999999999
 30
0.0
 11
-43.58333333333334
 21
-0.5
 31
0.0
 12
-44.0
 22
-3.0
 32
0.0
 13
-44.0
 23
-3.0
 33
0.0
  0
MTEXT
  5
1B50
330
1B48
100
AcDbEntity
  8
BEMASSUNG
 62
     0
100
AcDbMText
 10
-45.875
 20
42.95
 30
0.0
 40
2.5
 41
0.0
 46
0.0
 71
     5
 72
     1
  1
91.9
  7
QCADDimTextStyle
 11
7.731694621981503E-17
 21
1.0
 31
0.0
 73
     1
 44
1.0
  0
POINT
  5
1B51
330
1B48
100
AcDbEntity
  8
Defpoints
 62
     0
100
AcDbPoint
 10
8.91
 20
88.9
 30
0.0
  0
POINT
  5
1B52
330
1B48
100
AcDbEntity
  8
Defpoints
 62
     0
100
AcDbPoint
 10
-44.0
 20
-3.0
 30
0.0
  0
POINT
  5
1B53
330
1B48
100
AcDbEntity
  8
Defpoints
 62
     0
100
AcDbPoint
 10
-44.0
 20
-3.0
 30
0.0
  0
ENDBLK
  5
1B4A
330
1B48
100
AcDbEntity
  8
0
100
AcDbBlockEnd
  0
BLOCK
  5
1B55
330
1B54
100
AcDbEntity
  8
0
100
AcDbBlockBegin
  2
*D38
 70
     1
 10
0.0
 20
0.0
 30
0.0
  3
*D38
  1
*D38
  0
LINE
  5
1B57
330
1B54
100
AcDbEntity
  8
BEMASSUNG
 62
     0
370
    -2
100
AcDbLine
 10
-1.575
 20
99.06
 30
0.0
 11
-50.24999999999999
 21
99.06
 31
0.0
  0
LINE
  5
1B58
330
1B54
100
AcDbEntity
  8
BEMASSUNG
 62
     0
370
    -2
100
AcDbLine
 10
-49.625
 20
-3.0
 30
0.0
 11
-50.25
 21
-3.0
 31
0.0
  0
LINE
  5
1B59
330
1B54
100
AcDbEntity
  8
BEMASSUNG
 62
     0
370
    -2
100
AcDbLine
 10
-48.99999999999999
 20
96.56
 30
0.0
 11
-49.0
 21
-0.5
 31
0.0
  0
SOLID
  5
1B5A
330
1B54
100
AcDbEntity
  8
BEMASSUNG
 62
     0
100
AcDbTrace
 10
-48.58333333333333
 20
96.56
 30
0.0
 11
-49.41666666666666
 21
96.56
 31
0.0
 12
-48.99999999999999
 22
99.06
 32
0.0
 13
-48.99999999999999
 23
99.06
 33
0.0
  0
SOLID
  5
1B5B
330
1B54
100
AcDbEntity
  8
BEMASSUNG
 62
     0
100
AcDbTrace
 10
-49.41666666666666
 20
-0.4999999999999999
 30
0.0
 11
-48.58333333333334
 21
-0.5
 31
0.0
 12
-49.0
 22
-3.0
 32
0.0
 13
-49.0
 23
-3.0
 33
0.0
  0
MTEXT
  5
1B5C
330
1B54
100
AcDbEntity
  8
BEMASSUNG
 62
     0
100
AcDbMText
 10
-50.875
 20
48.03
 30
0.0
 40
2.5
 41
0.0
 46
0.0
 71
     5
 72
     1
  1
102.06
  7
QCADDimTextStyle
 11
6.962009952577897E-17
 21
1.0
 31
0.0
 73
     1
 44
1.0
  0
POINT
  5
1B5D
330
1B54
100
AcDbEntity
  8
Defpoints
 62
     0
100
AcDbPoint
 10
-0.95
 20
99.06
 30
0.0
  0
POINT
  5
1B5E
330
1B54
100
AcDbEntity
  8
Defpoints
 62
     0
100
AcDbPoint
 10
-49.0
 20
-3.0
 30
0.0
  0
POINT
  5
1B5F
330
1B54
100
AcDbEntity
  8
Defpoints
 62
     0
100
AcDbPoint
 10
-49.0
 20
-3.0
 30
0.0
  0
ENDBLK
  5
1B56
330
1B54
100
AcDbEntity
  8
0
100
AcDbBlockEnd
  0
BLOCK
  5
1B61
330
1B60
100
AcDbEntity
  8
0
100
AcDbBlockBegin
  2
*D39
 70
     1
 10
0.0
 20
0.0
 30
0.0
  3
*D39
  1
*D39
  0
LINE
  5
1B63
330
1B60
100
AcDbEntity
  8
BEMASSUNG
 62
     0
370
    -2
100
AcDbLine
 10
-7.875000000000021
 20
11.7
 30
0.0
 11
-10.25
 21
11.7
 31
0.0
  0
LINE
  5
1B64
330
1B60
100
AcDbEntity
  8
BEMASSUNG
 62
     0
370
    -2
100
AcDbLine
 10
-9.625
 20
-3.0
 30
0.0
 11
-10.25
 21
-3.0
 31
0.0
  0
LINE
  5
1B65
330
1B60
100
AcDbEntity
  8
BEMASSUNG
 62
     0
370
    -2
100
AcDbLine
 10
-8.999999999999998
 20
9.2
 30
0.0
 11
-9.0
 21
-0.5
 31
0.0
  0
SOLID
  5
1B66
330
1B60
100
AcDbEntity
  8
BEMASSUNG
 62
     0
100
AcDbTrace
 10
-8.583333333333332
 20
9.2
 30
0.0
 11
-9.416666666666664
 21
9.2
 31
0.0
 12
-8.999999999999998
 22
11.7
 32
0.0
 13
-8.999999999999998
 23
11.7
 33
0.0
  0
SOLID
  5
1B67
330
1B60
100
AcDbEntity
  8
BEMASSUNG
 62
     0
100
AcDbTrace
 10
-9.416666666666666
 20
-0.4999999999999999
 30
0.0
 11
-8.583333333333334
 21
-0.5
 31
0.0
 12
-9.0
 22
-3.0
 32
0.0
 13
-9.0
 23
-3.0
 33
0.0
  0
MTEXT
  5
1B68
330
1B60
100
AcDbEntity
  8
BEMASSUNG
 62
     0
100
AcDbMText
 10
-10.875
 20
4.35
 30
0.0
 40
2.5
 41
0.0
 46
0.0
 71
     5
 72
     1
  1
14.7
  7
QCADDimTextStyle
 11
1.208406013197449E-16
 21
1.0
 31
0.0
 73
     1
 44
1.0
  0
POINT
  5
1B69
330
1B60
100
AcDbEntity
  8
Defpoints
 62
     0
100
AcDbPoint
 10
-7.250000000000021
 20
11.7
 30
0.0
  0
POINT
  5
1B6A
330
1B60
100
AcDbEntity
  8
Defpoints
 62
     0
100
AcDbPoint
 10
-9.0
 20
-3.0
 30
0.0
  0
POINT
  5
1B6B
330
1B60
100
AcDbEntity
  8
Defpoints
 62
     0
100
AcDbPoint
 10
-9.0
 20
-3.0
 30
0.0
  0
ENDBLK
  5
1B62
330
1B60
100
AcDbEntity
  8
0
100
AcDbBlockEnd
  0
BLOCK
  5
1B6D
330
1B6C
100
AcDbEntity
  8
0
100
AcDbBlockBegin
  2
*D40
 70
     1
 10
0.0
 20
0.0
 30
0.0
  3
*D40
  1
*D40
  0
LINE
  5
1B6F
330
1B6C
100
AcDbEntity
  8
BEMASSUNG
 62
     0
370
    -2
100
AcDbLine
 10
11.03214830737827
 20
113.0144988107524
 30
0.0
 11
11.12785169262173
 21
112.9855011892476
 31
0.0
  0
MTEXT
  5
1B70
330
1B6C
100
AcDbEntity
  8
BEMASSUNG
 62
     0
100
AcDbMText
 10
12.223705
 20
116.794438
 30
0.0
 40
2.5
 41
0.0
 46
0.0
 71
     5
 72
     1
  1
%%c5.1
  7
QCADDimTextStyle
 11
0.9570338524346372
 21
-0.2899762150489532
 31
0.0
 73
     1
 44
1.0
  0
SOLID
  5
1B71
330
1B6C
100
AcDbEntity
  8
BEMASSUNG
 62
     0
100
AcDbTrace
 10
11.00702826968467
 20
112.5867370840665
 30
0.0
 11
11.2486751155588
 21
113.3842652944287
 31
0.0
 12
13.52043632370832
 22
112.2605606516252
 32
0.0
 13
13.52043632370832
 23
112.2605606516252
 33
0.0
  0
SOLID
  5
1B72
330
1B6C
100
AcDbEntity
  8
BEMASSUNG
 62
     0
100
AcDbTrace
 10
11.15297173031533
 20
113.4132629159335
 30
0.0
 11
10.9113248844412
 21
112.6157347055713
 31
0.0
 12
8.639563676291676
 22
113.7394393483748
 32
0.0
 13
8.639563676291676
 23
113.7394393483748
 33
0.0
  0
POINT
  5
1B73
330
1B6C
100
AcDbEntity
  8
Defpoints
 62
     0
100
AcDbPoint
 10
8.639563676291676
 20
113.7394393483748
 30
0.0
  0
POINT
  5
1B74
330
1B6C
100
AcDbEntity
  8
Defpoints
 62
     0
100
AcDbPoint
 10
13.52043632370832
 20
112.2605606516252
 30
0.0
  0
ENDBLK
  5
1B6E
330
1B6C
100
AcDbEntity
  8
0
100
AcDbBlockEnd
  0
BLOCK
  5
1B76
330
1B75
100
AcDbEntity
  8
0
100
AcDbBlockBegin
  2
*D41
 70
     1
 10
0.0
 20
0.0
 30
0.0
  3
*D41
  1
*D41
  0
LINE
  5
1B78
330
1B75
100
AcDbEntity
  8
BEMASSUNG
 62
     0
370
    -2
100
AcDbLine
 10
3.070403852127459
 20
120.75
 30
0.0
 11
7.25
 21
120.75
 31
0.0
  0
LINE
  5
1B79
330
1B75
100
AcDbEntity
  8
BEMASSUNG
 62
     0
370
    -2
100
AcDbLine
 10
3.07040385212747
 20
124.05
 30
0.0
 11
7.25
 21
124.05
 31
0.0
  0
LINE
  5
1B7A
330
1B75
100
AcDbEntity
  8
BEMASSUNG
 62
     0
370
    -2
100
AcDbLine
 10
6.0
 20
118.25
 30
0.0
 11
6.0
 21
115.75
 31
0.0
  0
LINE
  5
1B7B
330
1B75
100
AcDbEntity
  8
BEMASSUNG
 62
     0
370
    -2
100
AcDbLine
 10
6.0
 20
126.55
 30
0.0
 11
6.0
 21
129.05
 31
0.0
  0
SOLID
  5
1B7C
330
1B75
100
AcDbEntity
  8
BEMASSUNG
 62
     0
100
AcDbTrace
 10
6.416666666666667
 20
118.25
 30
0.0
 11
5.583333333333333
 21
118.25
 31
0.0
 12
6.0
 22
120.75
 32
0.0
 13
6.0
 23
120.75
 33
0.0
  0
SOLID
  5
1B7D
330
1B75
100
AcDbEntity
  8
BEMASSUNG
 62
     0
100
AcDbTrace
 10
5.583333333333333
 20
126.55
 30
0.0
 11
6.416666666666667
 21
126.55
 31
0.0
 12
6.0
 22
124.05
 32
0.0
 13
6.0
 23
124.05
 33
0.0
  0
MTEXT
  5
1B7E
330
1B75
100
AcDbEntity
  8
BEMASSUNG
 62
     0
100
AcDbMText
 10
9.4375
 20
122.4
 30
0.0
 40
2.5
 41
0.0
 46
0.0
 71
     5
 72
     1
  1
3.3
  7
QCADDimTextStyle
 73
     1
 44
1.0
  0
POINT
  5
1B7F
330
1B75
100
AcDbEntity
  8
Defpoints
 62
     0
100
AcDbPoint
 10
2.445403852127459
 20
120.75
 30
0.0
  0
POINT
  5
1B80
330
1B75
100
AcDbEntity
  8
Defpoints
 62
     0
100
AcDbPoint
 10
2.44540385212747
 20
124.05
 30
0.0
  0
POINT
  5
1B81
330
1B75
100
AcDbEntity
  8
Defpoints
 62
     0
100
AcDbPoint
 10
6.0
 20
124.05
 30
0.0
  0
ENDBLK
  5
1B77
330
1B75
100
AcDbEntity
  8
0
100
AcDbBlockEnd
  0
ENDSEC
  0
SECTION
  2
ENTITIES
  0
LINE
  5
64
330
18E2
100
AcDbEntity
  8
Cutout
100
AcDbLine
 10
2.499999999999987
 20
110.7
 30
0.0
 11
2.499999999999987
 21
110.7
 31
0.0
  0
ARC
  5
65
330
18E2
100
AcDbEntity
  8
Cutout
100
AcDbCircle
 10
35.55999999999997
 20
122.4
 30
0.0
 40
2.950000000000001
100
AcDbArc
 50
180.0000198478428
 51
214.0089214061784
  0
ARC
  5
66
330
18E2
100
AcDbEntity
  8
Cutout
100
AcDbCircle
 10
-0.0000000000000278
 20
122.4
 30
0.0
 40
2.950000000000001
100
AcDbArc
 50
180.0000198478428
 51
214.0089214061784
  0
ARC
  5
67
330
18E2
100
AcDbEntity
  8
Cutout
100
AcDbCircle
 10
35.55999999999999
 20
-0.0000000000000006
 30
0.0
 40
2.950000000000001
100
AcDbArc
 50
180.0000198478428
 51
214.0089214061784
  0
ARC
  5
68
330
18E2
100
AcDbEntity
  8
Cutout
100
AcDbCircle
 10
0.0
 20
0.0
 30
0.0
 40
2.950000000000001
100
AcDbArc
 50
180.0000198478428
 51
214.0089214061784
  0
LINE
  5
69
330
18E2
100
AcDbEntity
  8
Cutout
100
AcDbLine
 10
41.91499999999997
 20
11.71475223154698
 30
0.0
 11
41.91499999999997
 21
11.71475223154698
 31
0.0
  0
LINE
  5
6A
330
18E2
100
AcDbEntity
  8
Cutout
100
AcDbLine
 10
39.36499999999997
 20
11.71475223154698
 30
0.0
 11
39.36499999999997
 21
11.71475223154698
 31
0.0
  0
LINE
  5
6B
330
18E2
100
AcDbEntity
  8
Cutout
100
AcDbLine
 10
-3.805000000000033
 20
11.7
 30
0.0
 11
-3.805000000000033
 21
11.7
 31
0.0
  0
LINE
  5
6C
330
18E2
100
AcDbEntity
  8
Cutout
100
AcDbLine
 10
-6.355000000000033
 20
11.7
 30
0.0
 11
-6.355000000000033
 21
11.7
 31
0.0
  0
ARC
  5
6D
330
18E2
100
AcDbEntity
  8
Cutout
100
AcDbCircle
 10
35.55999999999997
 20
122.4
 30
0.0
 40
2.949999999999994
100
AcDbArc
 50
0.0
 51
34.00894125402125
  0
ARC
  5
6E
330
18E2
100
AcDbEntity
  8
Cutout
100
AcDbCircle
 10
-0.0000000000000278
 20
122.4
 30
0.0
 40
2.949999999999996
100
AcDbArc
 50
0.0
 51
34.00894125402125
  0
ARC
  5
6F
330
18E2
100
AcDbEntity
  8
Cutout
100
AcDbCircle
 10
35.55999999999999
 20
-0.0000000000000006
 30
0.0
 40
2.949999999999994
100
AcDbArc
 50
0.0
 51
34.00894125402125
  0
ARC
  5
70
330
18E2
100
AcDbEntity
  8
Cutout
100
AcDbCircle
 10
0.0
 20
0.0
 30
0.0
 40
2.949999999999996
100
AcDbArc
 50
0.0
 51
34.00894125402125
  0
LINE
  5
71
330
18E2
100
AcDbEntity
  8
Cutout
100
AcDbLine
 10
43.01
 20
-3.0
 30
0.0
 11
43.01
 21
-3.0
 31
0.0
  0
LINE
  5
72
330
18E2
100
AcDbEntity
  8
Dimension
100
AcDbLine
 10
43.01
 20
-3.0
 30
0.0
 11
43.01
 21
125.3999999999999
 31
0.0
  0
LINE
  5
73
330
18E2
100
AcDbEntity
  8
Dimension
100
AcDbLine
 10
43.01
 20
125.3999999999999
 30
0.0
 11
-7.450000000000014
 21
125.4
 31
0.0
  0
LINE
  5
74
330
18E2
100
AcDbEntity
  8
Cutout
100
AcDbLine
 10
-7.45
 20
-2.999999999999999
 30
0.0
 11
-7.45
 21
-2.999999999999999
 31
0.0
  0
LINE
  5
75
330
18E2
100
AcDbEntity
  8
Dimension
100
AcDbLine
 10
-7.450000000000014
 20
125.4
 30
0.0
 11
-7.45
 21
-2.999999999999972
 31
0.0
  0
LINE
  5
76
330
18E2
100
AcDbEntity
  8
Dimension
100
AcDbLine
 10
-7.45
 20
-2.999999999999999
 30
0.0
 11
43.01
 21
-3.0
 31
0.0
  0
ARC
  5
77
330
18E2
100
AcDbEntity
  8
Cutout
100
AcDbCircle
 10
35.55999999999999
 20
-0.0000000000000006
 30
0.0
 40
2.950000000000001
100
AcDbArc
 50
145.9910785938216
 51
180.0000198478428
  0
LINE
  5
78
330
18E2
100
AcDbEntity
  8
Cutout
100
AcDbLine
 10
38.00540385212748
 20
1.649999999999998
 30
0.0
 11
33.1145961478725
 21
1.649999999999998
 31
0.0
  0
ARC
  5
79
330
18E2
100
AcDbEntity
  8
Cutout
100
AcDbCircle
 10
35.55999999999999
 20
-0.0000000000000006
 30
0.0
 40
2.949999999999994
100
AcDbArc
 50
325.9910587459786
 51
0.0
  0
LINE
  5
7A
330
18E2
100
AcDbEntity
  8
Cutout
100
AcDbLine
 10
33.11459614787248
 20
-1.649999999999999
 30
0.0
 11
38.00540385212748
 21
-1.649999999999999
 31
0.0
  0
ARC
  5
7B
330
18E2
100
AcDbEntity
  8
Cutout
100
AcDbCircle
 10
0.0
 20
0.0
 30
0.0
 40
2.950000000000001
100
AcDbArc
 50
145.9910785938216
 51
180.0000198478428
  0
LINE
  5
7C
330
18E2
100
AcDbEntity
  8
Cutout
100
AcDbLine
 10
2.445403852127471
 20
1.649999999999999
 30
0.0
 11
-2.445403852127509
 21
1.649999999999999
 31
0.0
  0
ARC
  5
7D
330
18E2
100
AcDbEntity
  8
Cutout
100
AcDbCircle
 10
0.0
 20
0.0
 30
0.0
 40
2.949999999999996
100
AcDbArc
 50
325.9910587459786
 51
0.0
  0
LINE
  5
7E
330
18E2
100
AcDbEntity
  8
Cutout
100
AcDbLine
 10
-2.445403852127518
 20
-1.649999999999999
 30
0.0
 11
2.445403852127475
 21
-1.649999999999999
 31
0.0
  0
ARC
  5
7F
330
18E2
100
AcDbEntity
  8
Cutout
100
AcDbCircle
 10
-0.0000000000000278
 20
122.4
 30
0.0
 40
2.949999999999996
100
AcDbArc
 50
325.9910587459786
 51
0.0
  0
LINE
  5
80
330
18E2
100
AcDbEntity
  8
Cutout
100
AcDbLine
 10
-2.445403852127534
 20
120.75
 30
0.0
 11
2.445403852127464
 21
120.75
 31
0.0
  0
ARC
  5
81
330
18E2
100
AcDbEntity
  8
Cutout
100
AcDbCircle
 10
-0.0000000000000278
 20
122.4
 30
0.0
 40
2.950000000000001
100
AcDbArc
 50
145.9910785938216
 51
180.0000198478428
  0
LINE
  5
82
330
18E2
100
AcDbEntity
  8
Cutout
100
AcDbLine
 10
2.445403852127458
 20
124.05
 30
0.0
 11
-2.44540385212752
 21
124.05
 31
0.0
  0
ARC
  5
83
330
18E2
100
AcDbEntity
  8
Cutout
100
AcDbCircle
 10
35.55999999999997
 20
122.4
 30
0.0
 40
2.949999999999994
100
AcDbArc
 50
325.9910587459786
 51
0.0
  0
LINE
  5
84
330
18E2
100
AcDbEntity
  8
Cutout
100
AcDbLine
 10
33.11459614787247
 20
120.75
 30
0.0
 11
38.00540385212746
 21
120.75
 31
0.0
  0
ARC
  5
85
330
18E2
100
AcDbEntity
  8
Cutout
100
AcDbCircle
 10
35.55999999999997
 20
122.4
 30
0.0
 40
2.950000000000001
100
AcDbArc
 50
145.9910785938216
 51
180.0000198478428
  0
LINE
  5
86
330
18E2
100
AcDbEntity
  8
Cutout
100
AcDbLine
 10
38.00540385212746
 20
124.05
 30
0.0
 11
33.11459614787248
 21
124.05
 31
0.0
  0
CIRCLE
  5
87
330
18E2
100
AcDbEntity
  8
Cutout
100
AcDbCircle
 10
-0.0000000000000139
 20
110.7
 30
0.0
 40
1.35
  0
CIRCLE
  5
89
330
18E2
100
AcDbEntity
  8
Cutout
100
AcDbCircle
 10
30.47999999999998
 20
11.7
 30
0.0
 40
1.35
  0
CIRCLE
  5
8A
330
18E2
100
AcDbEntity
  8
Cutout
100
AcDbCircle
 10
40.63999999999997
 20
11.7
 30
0.0
 40
1.35
  0
CIRCLE
  5
8B
330
18E2
100
AcDbEntity
  8
Cutout
100
AcDbCircle
 10
5.079999999999981
 20
11.7
 30
0.0
 40
1.35
  0
CIRCLE
  5
8C
330
18E2
100
AcDbEntity
  8
Cutout
100
AcDbCircle
 10
-5.080000000000034
 20
11.7
 30
0.0
 40
1.35
  0
CIRCLE
  5
8D
330
18E2
100
AcDbEntity
  8
Cutout
100
AcDbCircle
 10
35.55999999999998
 20
11.7
 30
0.0
 40
1.35
  0
CIRCLE
  5
8E
330
18E2
100
AcDbEntity
  8
Cutout
100
AcDbCircle
 10
-0.000000000000033
 20
11.7
 30
0.0
 40
1.35
  0
CIRCLE
  5
8F
330
18E2
100
AcDbEntity
  8
Cutout
100
AcDbCircle
 10
-0.0000000000000139
 20
110.7
 30
0.0
 40
2.5
  0
CIRCLE
  5
92
330
18E2
100
AcDbEntity
  8
Cutout
100
AcDbCircle
 10
14.53
 20
25.64
 30
0.0
 40
3.149999999999999
  0
CIRCLE
  5
93
330
18E2
100
AcDbEntity
  8
Cutout
100
AcDbCircle
 10
14.53
 20
68.82
 30
0.0
 40
3.149999999999999
  0
LINE
  5
9F
330
18E2
100
AcDbEntity
  8
Cutout
100
AcDbLine
 10
24.73
 20
23.0
 30
0.0
 11
36.43
 21
23.0
 31
0.0
  0
LINE
  5
A0
330
18E2
100
AcDbEntity
  8
Cutout
100
AcDbLine
 10
37.63
 20
24.2
 30
0.0
 11
37.63
 21
56.90000000000001
 31
0.0
  0
LINE
  5
A1
330
18E2
100
AcDbEntity
  8
Cutout
100
AcDbLine
 10
24.73
 20
58.1
 30
0.0
 11
36.43
 21
58.1
 31
0.0
  0
LINE
  5
A2
330
18E2
100
AcDbEntity
  8
Cutout
100
AcDbLine
 10
23.53
 20
56.9
 30
0.0
 11
23.53
 21
24.19999999999998
 31
0.0
  0
LINE
  5
A3
330
18E2
100
AcDbEntity
  8
Cutout
100
AcDbLine
 10
24.73
 20
66.0
 30
0.0
 11
36.43
 21
66.0
 31
0.0
  0
LINE
  5
A4
330
18E2
100
AcDbEntity
  8
Cutout
100
AcDbLine
 10
37.63
 20
67.2
 30
0.0
 11
37.63
 21
99.89999999999998
 31
0.0
  0
LINE
  5
A5
330
18E2
100
AcDbEntity
  8
Cutout
100
AcDbLine
 10
24.73
 20
101.1
 30
0.0
 11
36.43
 21
101.1
 31
0.0
  0
LINE
  5
A6
330
18E2
100
AcDbEntity
  8
Cutout
100
AcDbLine
 10
23.53
 20
99.89999999999998
 30
0.0
 11
23.53
 21
67.19999999999999
 31
0.0
  0
DIMENSION
  5
A7
330
18E2
100
AcDbEntity
  8
BEMASSUNG
100
AcDbDimension
280
     0
  2
*D1
 10
43.01000000000001
 20
130.0
 30
0.0
 11
17.77999999999999
 21
131.875
 31
0.0
 70
    32
 71
     5
 42
50.46000000000002
 73
     0
 74
     0
 75
     0
  3
QCADDimStyle
100
AcDbAlignedDimension
 13
-7.450000000000014
 23
125.4
 33
0.0
 14
43.01000000000001
 24
125.3999999999999
 34
0.0
100
AcDbRotatedDimension
1001
ACAD
1000
DSTYLE
1002
{
1070
   279
1070
     2
1070
   171
1070
     3
1070
   143
1040
0.03937007874016
1070
   274
1070
     3
1070
    41
1040
2.5
1070
   141
1040
2.5
1070
   176
1070
     0
1070
   177
1070
     0
1070
   178
1070
     0
1070
   271
1070
     2
1070
    43
1040
3.75
1070
    44
1040
1.25
1070
    42
1040
0.625
1070
   147
1040
0.625
1070
    77
1070
     1
1070
   272
1070
     2
1070
   283
1070
     0
1070
   140
1040
2.5
1070
   284
1070
     8
1070
    78
1070
     8
1002
}
  0
DIMENSION
  5
A8
330
18E2
100
AcDbEntity
  8
BEMASSUNG
100
AcDbDimension
280
     0
  2
*D2
 10
49.99999999999979
 20
-3.0
 30
0.0
 11
48.12499999999988
 21
57.2
 31
0.0
 70
   160
 71
     5
 42
128.3999999999999
 73
     0
 74
     0
 75
     0
  3
QCADDimStyle
100
AcDbAlignedDimension
 13
43.01000000000001
 23
125.3999999999999
 33
0.0
 14
43.01
 24
-3.0
 34
0.0
 50
90.0
100
AcDbRotatedDimension
1001
ACAD
1000
DSTYLE
1002
{
1070
   279
1070
     2
1070
   171
1070
     3
1070
   143
1040
0.03937007874016
1070
   274
1070
     3
1070
    41
1040
2.5
1070
   141
1040
2.5
1070
   176
1070
     0
1070
   177
1070
     0
1070
   178
1070
     0
1070
   271
1070
     2
1070
    43
1040
3.75
1070
    44
1040
1.25
1070
    42
1040
0.625
1070
   147
1040
0.625
1070
    77
1070
     1
1070
   272
1070
     2
1070
   283
1070
     0
1070
   140
1040
2.5
1070
   284
1070
     8
1070
    78
1070
     8
1002
}
  0
DIMENSION
  5
AE
330
18E2
100
AcDbEntity
  8
BEMASSUNG
100
AcDbDimension
280
     0
  2
*D3
 10
1.105963092700694
 20
109.9258258351095
 30
0.0
 11
5.0
 21
110.0
 31
0.0
 70
   163
 71
     5
 42
2.699999999999994
 73
     0
 74
     0
 75
     0
  3
QCADDimStyle
100
AcDbDiametricDimension
 15
-1.105963092700722
 25
111.4741741648905
 35
0.0
 40
0.0
1001
ACAD
1000
DSTYLE
1002
{
1070
   279
1070
     2
1070
   171
1070
     3
1070
   143
1040
0.03937007874016
1070
   274
1070
     3
1070
    41
1040
2.5
1070
   141
1040
2.5
1070
   176
1070
     0
1070
   177
1070
     0
1070
   178
1070
     0
1070
   271
1070
     2
1070
    43
1040
3.75
1070
    44
1040
1.25
1070
    42
1040
0.625
1070
   147
1040
0.625
1070
    77
1070
     1
1070
   272
1070
     2
1070
   283
1070
     0
1070
   140
1040
2.5
1070
   284
1070
     8
1070
    78
1070
     8
1002
}
  0
DIMENSION
  5
AF
330
18E2
100
AcDbEntity
  8
BEMASSUNG
100
AcDbDimension
280
     0
  2
*D4
 10
-0.0000000000000137
 20
113.2
 30
0.0
 11
-2.0
 21
116.0
 31
0.0
 70
   163
 71
     5
 42
5.0
 73
     0
 74
     0
 75
     0
  3
QCADDimStyle
100
AcDbDiametricDimension
 15
-0.0000000000000144
 25
108.2
 35
0.0
 40
0.0
1001
ACAD
1000
DSTYLE
1002
{
1070
   279
1070
     2
1070
   171
1070
     3
1070
   143
1040
0.03937007874016
1070
   274
1070
     3
1070
    41
1040
2.5
1070
   141
1040
2.5
1070
   176
1070
     0
1070
   177
1070
     0
1070
   178
1070
     0
1070
   271
1070
     2
1070
    43
1040
3.75
1070
    44
1040
1.25
1070
    42
1040
0.625
1070
   147
1040
0.625
1070
    77
1070
     1
1070
   272
1070
     2
1070
   283
1070
     0
1070
   140
1040
2.5
1070
   284
1070
     8
1070
    78
1070
     8
1002
}
  0
MTEXT
  5
B0
330
18E2
100
AcDbEntity
  8
INFO
100
AcDbMText
 10
-6.2
 20
107.0
 30
0.0
 40
2.0
 41
0.0
 46
0.0
 71
     1
 72
     1
  1
Senkung
  7
textstyle0
 73
     1
 44
1.0
  0
DIMENSION
  5
BA
330
18E2
100
AcDbEntity
  8
BEMASSUNG
100
AcDbDimension
280
     0
  2
*D5
 10
38.00540385212745
 20
119.0
 30
0.0
 11
42.685959
 21
121.275
 31
0.0
 70
   160
 71
     5
 42
4.890807704254982
 73
     0
 74
     0
 75
     0
  3
QCADDimStyle
100
AcDbAlignedDimension
 13
33.11459614787247
 23
120.75
 33
0.0
 14
38.00540385212745
 24
120.75
 34
0.0
100
AcDbRotatedDimension
1001
ACAD
1000
DSTYLE
1002
{
1070
   279
1070
     2
1070
   171
1070
     3
1070
   143
1040
0.03937007874016
1070
   274
1070
     3
1070
    41
1040
2.5
1070
   141
1040
2.5
1070
   176
1070
     0
1070
   177
1070
     0
1070
   178
1070
     0
1070
   271
1070
     2
1070
    43
1040
3.75
1070
    44
1040
1.25
1070
    42
1040
0.625
1070
   147
1040
0.625
1070
    77
1070
     1
1070
   272
1070
     2
1070
   283
1070
     0
1070
   140
1040
2.5
1070
   284
1070
     8
1070
    78
1070
     8
1002
}
  0
DIMENSION
  5
BB
330
18E2
100
AcDbEntity
  8
BEMASSUNG
100
AcDbDimension
280
     0
  2
*D6
 10
38.50999999999996
 20
113.0
 30
0.0
 11
35.56000000000005
 21
107.0625
 31
0.0
 70
    32
 71
     5
 42
5.899999999999821
 73
     0
 74
     0
 75
     0
  3
QCADDimStyle
100
AcDbAlignedDimension
 13
32.61000000000014
 23
122.3999989780899
 33
0.0
 14
38.50999999999996
 24
122.4
 34
0.0
100
AcDbRotatedDimension
1001
ACAD
1000
DSTYLE
1002
{
1070
   279
1070
     2
1070
   171
1070
     3
1070
   143
1040
0.03937007874016
1070
   274
1070
     3
1070
    41
1040
2.5
1070
   141
1040
2.5
1070
   176
1070
     0
1070
   177
1070
     0
1070
   178
1070
     0
1070
   271
1070
     2
1070
    43
1040
3.75
1070
    44
1040
1.25
1070
    42
1040
0.625
1070
   147
1040
0.625
1070
    77
1070
     1
1070
   272
1070
     2
1070
   283
1070
     0
1070
   140
1040
2.5
1070
   284
1070
     8
1070
    78
1070
     8
1002
}
  0
CIRCLE
  5
18B
330
18E2
100
AcDbEntity
  8
Cutout
100
AcDbCircle
 10
30.58
 20
62.05
 30
0.0
 40
1.35
  0
CIRCLE
  5
18C
330
18E2
100
AcDbEntity
  8
Cutout
100
AcDbCircle
 10
30.58
 20
110.7
 30
0.0
 40
1.35
  0
CIRCLE
  5
333
330
18E2
100
AcDbEntity
  8
Cutout
100
AcDbCircle
 10
30.58
 20
110.7
 30
0.0
 40
2.5
  0
CIRCLE
  5
334
330
18E2
100
AcDbEntity
  8
Cutout
100
AcDbCircle
 10
30.58
 20
62.05
 30
0.0
 40
2.5
  0
MTEXT
  5
335
330
18E2
100
AcDbEntity
  8
INFO
100
AcDbMText
 10
31.0
 20
107.0
 30
0.0
 40
2.0
 41
0.0
 46
0.0
 71
     1
 72
     1
  1
Senkung
  7
textstyle1
 73
     1
 44
1.0
  0
MTEXT
  5
336
330
18E2
100
AcDbEntity
  8
INFO
100
AcDbMText
 10
33.20216074643968
 20
60.51702406285808
 30
0.0
 40
2.0
 41
0.0
 46
0.0
 71
     1
 72
     1
  1
Senkung
  7
textstyle2
 73
     1
 44
1.0
  0
DIMENSION
  5
339
330
18E2
100
AcDbEntity
  8
BEMASSUNG
100
AcDbDimension
280
     0
  2
*D7
 10
28.44922521892351
 20
23.0
 30
0.0
 11
26.57422521892351
 21
40.55
 31
0.0
 70
    32
 71
     5
 42
35.1
 73
     0
 74
     0
 75
     0
  3
QCADDimStyle
100
AcDbAlignedDimension
 13
30.58
 23
58.1
 33
0.0
 14
30.58000000000001
 24
23.0
 34
0.0
 50
90.0
100
AcDbRotatedDimension
1001
ACAD
1000
DSTYLE
1002
{
1070
   279
1070
     2
1070
   171
1070
     3
1070
   143
1040
0.03937007874016
1070
   274
1070
     3
1070
    41
1040
2.5
1070
   141
1040
2.5
1070
   176
1070
     0
1070
   177
1070
     0
1070
   178
1070
     0
1070
   271
1070
     2
1070
    43
1040
3.75
1070
    44
1040
1.25
1070
    42
1040
0.625
1070
   147
1040
0.625
1070
    77
1070
     1
1070
   272
1070
     2
1070
   283
1070
     0
1070
   140
1040
2.5
1070
   284
1070
     8
1070
    78
1070
     8
1002
}
  0
ARC
  5
40B
330
18E2
100
AcDbEntity
  8
Cutout
100
AcDbCircle
 10
24.73
 20
99.89999999999998
 30
0.0
 40
1.2
100
AcDbArc
 50
90.0
 51
180.0
  0
ARC
  5
40C
330
18E2
100
AcDbEntity
  8
Cutout
100
AcDbCircle
 10
36.43
 20
99.89999999999998
 30
0.0
 40
1.2
100
AcDbArc
 50
0.0
 51
90.0
  0
ARC
  5
40D
330
18E2
100
AcDbEntity
  8
Cutout
100
AcDbCircle
 10
36.43
 20
67.2
 30
0.0
 40
1.2
100
AcDbArc
 50
270.0
 51
0.0
  0
ARC
  5
40E
330
18E2
100
AcDbEntity
  8
Cutout
100
AcDbCircle
 10
24.73
 20
67.19999999999999
 30
0.0
 40
1.2
100
AcDbArc
 50
180.0
 51
270.0
  0
ARC
  5
40F
330
18E2
100
AcDbEntity
  8
Cutout
100
AcDbCircle
 10
36.43
 20
56.9
 30
0.0
 40
1.2
100
AcDbArc
 50
0.0
 51
90.0
  0
ARC
  5
410
330
18E2
100
AcDbEntity
  8
Cutout
100
AcDbCircle
 10
24.73
 20
56.9
 30
0.0
 40
1.2
100
AcDbArc
 50
90.0
 51
180.0
  0
ARC
  5
411
330
18E2
100
AcDbEntity
  8
Cutout
100
AcDbCircle
 10
36.43
 20
24.2
 30
0.0
 40
1.2
100
AcDbArc
 50
270.0
 51
0.0
  0
ARC
  5
412
330
18E2
100
AcDbEntity
  8
Cutout
100
AcDbCircle
 10
24.73
 20
24.2
 30
0.0
 40
1.2
100
AcDbArc
 50
180.0
 51
270.0
  0
DIMENSION
  5
413
330
18E2
100
AcDbEntity
  8
BEMASSUNG
100
AcDbDimension
280
     0
  2
*D8
 10
24.73
 20
56.9
 30
0.0
 11
15.38120745802767
 21
62.55520671726809
 31
0.0
 70
    36
 71
     5
 42
1.199999999999998
 73
     0
 74
     0
 75
     0
  3
QCADDimStyle
100
AcDbRadialDimension
 15
23.77885121307448
 25
57.63165291301963
 35
0.0
 40
0.0
1001
ACAD
1000
DSTYLE
1002
{
1070
   279
1070
     2
1070
   171
1070
     3
1070
   143
1040
0.03937007874016
1070
   274
1070
     3
1070
    41
1040
2.5
1070
   141
1040
2.5
1070
   176
1070
     0
1070
   177
1070
     0
1070
   178
1070
     0
1070
   271
1070
     2
1070
    43
1040
3.75
1070
    44
1040
1.25
1070
    42
1040
0.625
1070
   147
1040
0.625
1070
    77
1070
     1
1070
   272
1070
     2
1070
   283
1070
     0
1070
   140
1040
2.5
1070
   284
1070
     8
1070
    78
1070
     8
1002
}
  0
MTEXT
  5
5B3
330
18E2
100
AcDbEntity
  8
INFO
100
AcDbMText
 10
-7.0
 20
-5.0
 30
0.0
 40
3.0
 41
0.0
 46
0.0
 71
     1
 72
     1
  1
Material: AlMg3 t=2,5mm 
  7
textstyle3
 73
     1
 44
1.0
  0
LINE
  5
827
330
18E2
100
AcDbEntity
  8
Origins
  6
CENTERLINE
100
AcDbLine
 10
3.499999999999964
 20
122.4
 30
0.0
 11
-3.500000000000036
 21
122.4
 31
0.0
  0
LINE
  5
828
330
18E2
100
AcDbEntity
  8
Origins
  6
CENTERLINE
100
AcDbLine
 10
-0.0000000000000362
 20
124.4
 30
0.0
 11
-0.0000000000000362
 21
120.4
 31
0.0
  0
LINE
  5
829
330
18E2
100
AcDbEntity
  8
Origins
  6
CENTERLINE
100
AcDbLine
 10
3.5
 20
0.0
 30
0.0
 11
-3.5
 21
0.0
 31
0.0
  0
LINE
  5
82A
330
18E2
100
AcDbEntity
  8
Origins
  6
CENTERLINE
100
AcDbLine
 10
0.0
 20
2.0
 30
0.0
 11
0.0
 21
-2.0
 31
0.0
  0
LINE
  5
82B
330
18E2
100
AcDbEntity
  8
Origins
  6
CENTERLINE
100
AcDbLine
 10
39.05999995073815
 20
0.0
 30
0.0
 11
32.05999995073815
 21
0.0
 31
0.0
  0
LINE
  5
82C
330
18E2
100
AcDbEntity
  8
Origins
  6
CENTERLINE
100
AcDbLine
 10
35.55999995073815
 20
1.99999992699086
 30
0.0
 11
35.55999995073815
 21
-2.00000007300914
 31
0.0
  0
LINE
  5
82D
330
18E2
100
AcDbEntity
  8
Origins
  6
CENTERLINE
100
AcDbLine
 10
39.05999995073813
 20
122.4
 30
0.0
 11
32.05999995073813
 21
122.4
 31
0.0
  0
LINE
  5
82E
330
18E2
100
AcDbEntity
  8
Origins
  6
CENTERLINE
100
AcDbLine
 10
35.55999995073813
 20
124.3999999269909
 30
0.0
 11
35.55999995073813
 21
120.3999999269909
 31
0.0
  0
LINE
  5
837
330
18E2
100
AcDbEntity
  8
Origins
  6
CENTERLINE
100
AcDbLine
 10
2.170000000000002
 20
110.7
 30
0.0
 11
-2.170000000000002
 21
110.7
 31
0.0
  0
LINE
  5
838
330
18E2
100
AcDbEntity
  8
Origins
  6
CENTERLINE
100
AcDbLine
 10
-0.0000000000000141
 20
108.53
 30
0.0
 11
-0.0000000000000141
 21
112.87
 31
0.0
  0
LINE
  5
839
330
18E2
100
AcDbEntity
  8
Origins
  6
CENTERLINE
100
AcDbLine
 10
32.75000000000001
 20
110.7
 30
0.0
 11
28.41000000000001
 21
110.7
 31
0.0
  0
LINE
  5
83A
330
18E2
100
AcDbEntity
  8
Origins
  6
CENTERLINE
100
AcDbLine
 10
30.58
 20
108.53
 30
0.0
 11
30.58
 21
112.87
 31
0.0
  0
LINE
  5
841
330
18E2
100
AcDbEntity
  8
Origins
  6
CENTERLINE
100
AcDbLine
 10
16.70000000000002
 20
68.82
 30
0.0
 11
12.36000000000001
 21
68.82
 31
0.0
  0
LINE
  5
842
330
18E2
100
AcDbEntity
  8
Origins
  6
CENTERLINE
100
AcDbLine
 10
14.53
 20
66.65
 30
0.0
 11
14.53
 21
70.99
 31
0.0
  0
LINE
  5
84F
330
18E2
100
AcDbEntity
  8
Origins
  6
CENTERLINE
100
AcDbLine
 10
16.70000000000002
 20
25.64
 30
0.0
 11
12.36000000000001
 21
25.64
 31
0.0
  0
LINE
  5
850
330
18E2
100
AcDbEntity
  8
Origins
  6
CENTERLINE
100
AcDbLine
 10
14.53
 20
23.47
 30
0.0
 11
14.53
 21
27.81
 31
0.0
  0
LINE
  5
851
330
18E2
100
AcDbEntity
  8
Origins
  6
CENTERLINE
100
AcDbLine
 10
32.64999999999999
 20
11.7
 30
0.0
 11
28.30999999999999
 21
11.7
 31
0.0
  0
LINE
  5
852
330
18E2
100
AcDbEntity
  8
Origins
  6
CENTERLINE
100
AcDbLine
 10
30.47999999999998
 20
9.53
 30
0.0
 11
30.47999999999998
 21
13.87
 31
0.0
  0
LINE
  5
853
330
18E2
100
AcDbEntity
  8
Origins
  6
CENTERLINE
100
AcDbLine
 10
37.73
 20
11.7
 30
0.0
 11
33.38999999999999
 21
11.7
 31
0.0
  0
LINE
  5
854
330
18E2
100
AcDbEntity
  8
Origins
  6
CENTERLINE
100
AcDbLine
 10
35.55999999999998
 20
9.53
 30
0.0
 11
35.55999999999998
 21
13.87
 31
0.0
  0
LINE
  5
855
330
18E2
100
AcDbEntity
  8
Origins
  6
CENTERLINE
100
AcDbLine
 10
42.80999999999999
 20
11.7
 30
0.0
 11
38.46999999999998
 21
11.7
 31
0.0
  0
LINE
  5
856
330
18E2
100
AcDbEntity
  8
Origins
  6
CENTERLINE
100
AcDbLine
 10
40.63999999999997
 20
9.53
 30
0.0
 11
40.63999999999997
 21
13.87
 31
0.0
  0
LINE
  5
857
330
18E2
100
AcDbEntity
  8
Origins
  6
CENTERLINE
100
AcDbLine
 10
-2.910000000000018
 20
11.7
 30
0.0
 11
-7.250000000000021
 21
11.7
 31
0.0
  0
LINE
  5
858
330
18E2
100
AcDbEntity
  8
Origins
  6
CENTERLINE
100
AcDbLine
 10
-5.080000000000034
 20
9.529999999999983
 30
0.0
 11
-5.080000000000034
 21
13.87
 31
0.0
  0
LINE
  5
859
330
18E2
100
AcDbEntity
  8
Origins
  6
CENTERLINE
100
AcDbLine
 10
2.169999999999983
 20
11.7
 30
0.0
 11
-2.17000000000002
 21
11.7
 31
0.0
  0
LINE
  5
85A
330
18E2
100
AcDbEntity
  8
Origins
  6
CENTERLINE
100
AcDbLine
 10
-0.000000000000033
 20
9.529999999999983
 30
0.0
 11
-0.000000000000033
 21
13.87
 31
0.0
  0
LINE
  5
85B
330
18E2
100
AcDbEntity
  8
Origins
  6
CENTERLINE
100
AcDbLine
 10
7.249999999999997
 20
11.7
 30
0.0
 11
2.909999999999994
 21
11.7
 31
0.0
  0
LINE
  5
85C
330
18E2
100
AcDbEntity
  8
Origins
  6
CENTERLINE
100
AcDbLine
 10
5.079999999999981
 20
9.529999999999983
 30
0.0
 11
5.079999999999981
 21
13.87
 31
0.0
  0
LINE
  5
85D
330
18E2
100
AcDbEntity
  8
Origins
  6
CENTERLINE
100
AcDbLine
 10
32.75000000000001
 20
62.05
 30
0.0
 11
28.41000000000001
 21
62.05
 31
0.0
  0
LINE
  5
85E
330
18E2
100
AcDbEntity
  8
Origins
  6
CENTERLINE
100
AcDbLine
 10
30.58
 20
59.87999999999998
 30
0.0
 11
30.58
 21
64.22
 31
0.0
  0
LINE
  5
861
330
18E2
100
AcDbEntity
  8
Origins
  6
CENTERLINE
100
AcDbLine
 10
32.75000000000001
 20
83.54999999999998
 30
0.0
 11
28.41000000000001
 21
83.54999999999998
 31
0.0
  0
LINE
  5
862
330
18E2
100
AcDbEntity
  8
Origins
  6
CENTERLINE
100
AcDbLine
 10
30.58
 20
81.37999999999997
 30
0.0
 11
30.58
 21
85.71999999999998
 31
0.0
  0
LINE
  5
863
330
18E2
100
AcDbEntity
  8
Origins
  6
CENTERLINE
100
AcDbLine
 10
32.75000000000001
 20
40.54999999999999
 30
0.0
 11
28.41000000000001
 21
40.54999999999999
 31
0.0
  0
LINE
  5
864
330
18E2
100
AcDbEntity
  8
Origins
  6
CENTERLINE
100
AcDbLine
 10
30.58
 20
38.37999999999997
 30
0.0
 11
30.58
 21
42.71999999999999
 31
0.0
  0
LINE
  5
A0D
330
18E2
100
AcDbEntity
  8
Origins
  6
CENTERLINE
100
AcDbLine
 10
1.22
 20
76.57
 30
0.0
 11
1.22
 21
80.91000000000001
 31
0.0
  0
CIRCLE
  5
A0E
330
18E2
100
AcDbEntity
  8
Cutout
100
AcDbCircle
 10
1.22
 20
78.74000000000001
 30
0.0
 40
1.5
  0
LINE
  5
A0F
330
18E2
100
AcDbEntity
  8
Origins
  6
CENTERLINE
100
AcDbLine
 10
3.64
 20
68.82
 30
0.0
 11
-0.7
 21
68.82
 31
0.0
  0
CIRCLE
  5
A10
330
18E2
100
AcDbEntity
  8
Cutout
100
AcDbCircle
 10
1.22
 20
35.56
 30
0.0
 40
1.5
  0
LINE
  5
A11
330
18E2
100
AcDbEntity
  8
Origins
  6
CENTERLINE
100
AcDbLine
 10
1.47
 20
66.65
 30
0.0
 11
1.47
 21
70.99
 31
0.0
  0
LINE
  5
A12
330
18E2
100
AcDbEntity
  8
Origins
  6
CENTERLINE
100
AcDbLine
 10
3.39
 20
55.88
 30
0.0
 11
-0.95
 21
55.88
 31
0.0
  0
LINE
  5
A13
330
18E2
100
AcDbEntity
  8
Origins
  6
CENTERLINE
100
AcDbLine
 10
1.22
 20
53.71
 30
0.0
 11
1.22
 21
58.05
 31
0.0
  0
LINE
  5
A14
330
18E2
100
AcDbEntity
  8
Origins
  6
CENTERLINE
100
AcDbLine
 10
3.39
 20
35.56
 30
0.0
 11
-0.95
 21
35.56
 31
0.0
  0
LINE
  5
A15
330
18E2
100
AcDbEntity
  8
Origins
  6
CENTERLINE
100
AcDbLine
 10
1.22
 20
33.39
 30
0.0
 11
1.22
 21
37.73
 31
0.0
  0
LINE
  5
A16
330
18E2
100
AcDbEntity
  8
Origins
  6
CENTERLINE
100
AcDbLine
 10
3.64
 20
25.64
 30
0.0
 11
-0.7
 21
25.64
 31
0.0
  0
LINE
  5
A17
330
18E2
100
AcDbEntity
  8
Origins
  6
CENTERLINE
100
AcDbLine
 10
1.47
 20
23.48999999999998
 30
0.0
 11
1.47
 21
27.83
 31
0.0
  0
LINE
  5
A19
330
18E2
100
AcDbEntity
  8
Origins
  6
CENTERLINE
100
AcDbLine
 10
3.39
 20
99.06
 30
0.0
 11
-0.95
 21
99.06
 31
0.0
  0
LINE
  5
A1B
330
18E2
100
AcDbEntity
  8
Origins
  6
CENTERLINE
100
AcDbLine
 10
1.22
 20
96.88999999999999
 30
0.0
 11
1.22
 21
101.23
 31
0.0
  0
CIRCLE
  5
A1C
330
18E2
100
AcDbEntity
  8
Cutout
100
AcDbCircle
 10
1.47
 20
25.64
 30
0.0
 40
2.25
  0
CIRCLE
  5
A1D
330
18E2
100
AcDbEntity
  8
Cutout
100
AcDbCircle
 10
1.47
 20
68.82
 30
0.0
 40
2.25
  0
CIRCLE
  5
A1E
330
18E2
100
AcDbEntity
  8
Cutout
100
AcDbCircle
 10
1.22
 20
99.06
 30
0.0
 40
1.5
  0
CIRCLE
  5
A1F
330
18E2
100
AcDbEntity
  8
Cutout
100
AcDbCircle
 10
1.22
 20
55.88
 30
0.0
 40
1.5
  0
LINE
  5
A20
330
18E2
100
AcDbEntity
  8
Origins
  6
CENTERLINE
100
AcDbLine
 10
3.39
 20
78.74000000000001
 30
0.0
 11
-0.95
 21
78.74000000000001
 31
0.0
  0
CIRCLE
  5
B26
330
18E2
100
AcDbEntity
  8
Cutout
100
AcDbCircle
 10
11.08
 20
55.88
 30
0.0
 40
2.55
  0
CIRCLE
  5
B27
330
18E2
100
AcDbEntity
  8
Cutout
100
AcDbCircle
 10
11.08
 20
78.74000000000001
 30
0.0
 40
2.55
  0
CIRCLE
  5
B28
330
18E2
100
AcDbEntity
  8
Cutout
100
AcDbCircle
 10
11.08
 20
99.06
 30
0.0
 40
2.55
  0
CIRCLE
  5
B29
330
18E2
100
AcDbEntity
  8
Cutout
100
AcDbCircle
 10
11.08
 20
88.9
 30
0.0
 40
2.55
  0
LINE
  5
B2C
330
18E2
100
AcDbEntity
  8
Origins
  6
CENTERLINE
100
AcDbLine
 10
13.25
 20
99.06
 30
0.0
 11
8.91
 21
99.06
 31
0.0
  0
LINE
  5
B2D
330
18E2
100
AcDbEntity
  8
Origins
  6
CENTERLINE
100
AcDbLine
 10
11.08
 20
96.88999999999999
 30
0.0
 11
11.08
 21
101.23
 31
0.0
  0
LINE
  5
B2E
330
18E2
100
AcDbEntity
  8
Origins
  6
CENTERLINE
100
AcDbLine
 10
13.25
 20
88.9
 30
0.0
 11
8.91
 21
88.9
 31
0.0
  0
LINE
  5
B2F
330
18E2
100
AcDbEntity
  8
Origins
  6
CENTERLINE
100
AcDbLine
 10
11.08
 20
86.72999999999999
 30
0.0
 11
11.08
 21
91.07000000000001
 31
0.0
  0
LINE
  5
B32
330
18E2
100
AcDbEntity
  8
Origins
  6
CENTERLINE
100
AcDbLine
 10
13.25
 20
78.74000000000001
 30
0.0
 11
8.91
 21
78.74000000000001
 31
0.0
  0
LINE
  5
B33
330
18E2
100
AcDbEntity
  8
Origins
  6
CENTERLINE
100
AcDbLine
 10
11.08
 20
76.57
 30
0.0
 11
11.08
 21
80.91000000000001
 31
0.0
  0
LINE
  5
B34
330
18E2
100
AcDbEntity
  8
Origins
  6
CENTERLINE
100
AcDbLine
 10
13.25
 20
55.88
 30
0.0
 11
8.91
 21
55.88
 31
0.0
  0
LINE
  5
B35
330
18E2
100
AcDbEntity
  8
Origins
  6
CENTERLINE
100
AcDbLine
 10
11.08
 20
53.71
 30
0.0
 11
11.08
 21
58.05
 31
0.0
  0
LINE
  5
B36
330
18E2
100
AcDbEntity
  8
Origins
  6
CENTERLINE
100
AcDbLine
 10
13.25
 20
45.72
 30
0.0
 11
8.91
 21
45.72
 31
0.0
  0
LINE
  5
B37
330
18E2
100
AcDbEntity
  8
Origins
  6
CENTERLINE
100
AcDbLine
 10
11.08
 20
43.55
 30
0.0
 11
11.08
 21
47.89
 31
0.0
  0
LINE
  5
B38
330
18E2
100
AcDbEntity
  8
Origins
  6
CENTERLINE
100
AcDbLine
 10
13.25
 20
35.56
 30
0.0
 11
8.91
 21
35.56
 31
0.0
  0
LINE
  5
B39
330
18E2
100
AcDbEntity
  8
Origins
  6
CENTERLINE
100
AcDbLine
 10
11.08
 20
33.39
 30
0.0
 11
11.08
 21
37.73
 31
0.0
  0
CIRCLE
  5
B3A
330
18E2
100
AcDbEntity
  8
Cutout
100
AcDbCircle
 10
11.08
 20
35.56
 30
0.0
 40
2.55
  0
CIRCLE
  5
B3B
330
18E2
100
AcDbEntity
  8
Cutout
100
AcDbCircle
 10
11.08
 20
45.72
 30
0.0
 40
2.55
  0
LINE
  5
C11
330
18E2
100
AcDbEntity
  8
Origins
  6
CENTERLINE
100
AcDbLine
 10
13.25
 20
113.0
 30
0.0
 11
8.91
 21
113.0
 31
0.0
  0
LINE
  5
C12
330
18E2
100
AcDbEntity
  8
Origins
  6
CENTERLINE
100
AcDbLine
 10
11.08
 20
110.83
 30
0.0
 11
11.08
 21
115.17
 31
0.0
  0
CIRCLE
  5
C13
330
18E2
100
AcDbEntity
  8
Cutout
100
AcDbCircle
 10
11.08
 20
113.0
 30
0.0
 40
2.55
  0
DIMENSION
  5
CE9
330
18E2
100
AcDbEntity
  8
BEMASSUNG
100
AcDbDimension
280
     0
  2
*D9
 10
31.77305836572868
 20
62.68175290736554
 30
0.0
 11
34.0
 21
66.0
 31
0.0
 70
   163
 71
     5
 42
2.700000000000002
 73
     0
 74
     0
 75
     0
  3
QCADDimStyle
100
AcDbDiametricDimension
 15
29.38694163427132
 25
61.41824709263446
 35
0.0
 40
0.0
1001
ACAD
1000
DSTYLE
1002
{
1070
   279
1070
     2
1070
   171
1070
     3
1070
   143
1040
0.03937007874016
1070
   274
1070
     3
1070
    41
1040
2.5
1070
   141
1040
2.5
1070
   176
1070
     0
1070
   177
1070
     0
1070
   178
1070
     0
1070
   271
1070
     2
1070
    43
1040
3.75
1070
    44
1040
1.25
1070
    42
1040
0.625
1070
   147
1040
0.625
1070
    77
1070
     1
1070
   272
1070
     2
1070
   283
1070
     0
1070
   140
1040
2.5
1070
   284
1070
     8
1070
    78
1070
     8
1002
}
  0
DIMENSION
  5
CEA
330
18E2
100
AcDbEntity
  8
BEMASSUNG
100
AcDbDimension
280
     0
  2
*D10
 10
30.58
 20
64.55
 30
0.0
 11
28.0
 21
65.0
 31
0.0
 70
   163
 71
     5
 42
5.0
 73
     0
 74
     0
 75
     0
  3
QCADDimStyle
100
AcDbDiametricDimension
 15
30.57999999999999
 25
59.55
 35
0.0
 40
0.0
1001
ACAD
1000
DSTYLE
1002
{
1070
   279
1070
     2
1070
   171
1070
     3
1070
   143
1040
0.03937007874016
1070
   274
1070
     3
1070
    41
1040
2.5
1070
   141
1040
2.5
1070
   176
1070
     0
1070
   177
1070
     0
1070
   178
1070
     0
1070
   271
1070
     2
1070
    43
1040
3.75
1070
    44
1040
1.25
1070
    42
1040
0.625
1070
   147
1040
0.625
1070
    77
1070
     1
1070
   272
1070
     2
1070
   283
1070
     0
1070
   140
1040
2.5
1070
   284
1070
     8
1070
    78
1070
     8
1002
}
  0
DIMENSION
  5
DC4
330
18E2
100
AcDbEntity
  8
BEMASSUNG
100
AcDbDimension
280
     0
  2
*D11
 10
11.38
 20
68.84
 30
0.0
 11
16.0
 21
74.0
 31
0.0
 70
   163
 71
     5
 42
6.299999999999999
 73
     0
 74
     0
 75
     0
  3
QCADDimStyle
100
AcDbDiametricDimension
 15
17.68
 25
68.84
 35
0.0
 40
0.0
1001
ACAD
1000
DSTYLE
1002
{
1070
   279
1070
     2
1070
   171
1070
     3
1070
   143
1040
0.03937007874016
1070
   274
1070
     3
1070
    41
1040
2.5
1070
   141
1040
2.5
1070
   176
1070
     0
1070
   177
1070
     0
1070
   178
1070
     0
1070
   271
1070
     2
1070
    43
1040
3.75
1070
    44
1040
1.25
1070
    42
1040
0.625
1070
   147
1040
0.625
1070
    77
1070
     1
1070
   272
1070
     2
1070
   283
1070
     0
1070
   140
1040
2.5
1070
   284
1070
     8
1070
    78
1070
     8
1002
}
  0
DIMENSION
  5
DC7
330
18E2
100
AcDbEntity
  8
BEMASSUNG
100
AcDbDimension
280
     0
  2
*D12
 10
-0.0000000000000332
 20
10.35
 30
0.0
 11
-2.075
 21
15.7
 31
0.0
 70
   163
 71
     5
 42
2.699999999999999
 73
     0
 74
     0
 75
     0
  3
QCADDimStyle
100
AcDbDiametricDimension
 15
-0.0000000000000326
 25
13.05
 35
0.0
 40
0.0
1001
ACAD
1000
DSTYLE
1002
{
1070
   279
1070
     2
1070
   171
1070
     3
1070
   143
1040
0.03937007874016
1070
   274
1070
     3
1070
    41
1040
2.5
1070
   141
1040
2.5
1070
   176
1070
     0
1070
   177
1070
     0
1070
   178
1070
     0
1070
   271
1070
     2
1070
    43
1040
3.75
1070
    44
1040
1.25
1070
    42
1040
0.625
1070
   147
1040
0.625
1070
    77
1070
     1
1070
   272
1070
     2
1070
   283
1070
     0
1070
   140
1040
2.5
1070
   284
1070
     8
1070
    78
1070
     8
1002
}
  0
DIMENSION
  5
EA0
330
18E2
100
AcDbEntity
  8
BEMASSUNG
100
AcDbDimension
280
     0
  2
*D13
 10
-7.45000000000001
 20
92.62247728670047
 30
0.0
 11
11.56499999999999
 21
94.49747728670047
 31
0.0
 70
    32
 71
     5
 42
38.03000000000001
 73
     0
 74
     0
 75
     0
  3
QCADDimStyle
100
AcDbAlignedDimension
 13
30.58
 23
83.54999999999997
 33
0.0
 14
-7.45000000000001
 24
83.54999999999995
 34
0.0
100
AcDbRotatedDimension
1001
ACAD
1000
DSTYLE
1002
{
1070
   279
1070
     2
1070
   171
1070
     3
1070
   143
1040
0.03937007874016
1070
   274
1070
     3
1070
    41
1040
2.5
1070
   141
1040
2.5
1070
   176
1070
     0
1070
   177
1070
     0
1070
   178
1070
     0
1070
   271
1070
     2
1070
    43
1040
3.75
1070
    44
1040
1.25
1070
    42
1040
0.625
1070
   147
1040
0.625
1070
    77
1070
     1
1070
   272
1070
     2
1070
   283
1070
     0
1070
   140
1040
2.5
1070
   284
1070
     8
1070
    78
1070
     8
1002
}
  0
DIMENSION
  5
EA1
330
18E2
100
AcDbEntity
  8
BEMASSUNG
100
AcDbDimension
280
     0
  2
*D14
 10
43.01
 20
2.696942812056854
 30
0.0
 11
39.28499997536908
 21
4.771943
 31
0.0
 70
   160
 71
     5
 42
7.450000049261845
 73
     0
 74
     0
 75
     0
  3
QCADDimStyle
100
AcDbAlignedDimension
 13
35.55999995073815
 23
0.0
 33
0.0
 14
43.01
 24
-3.0
 34
0.0
100
AcDbRotatedDimension
1001
ACAD
1000
DSTYLE
1002
{
1070
   279
1070
     2
1070
   171
1070
     3
1070
   143
1040
0.03937007874016
1070
   274
1070
     3
1070
    41
1040
2.5
1070
   141
1040
2.5
1070
   176
1070
     0
1070
   177
1070
     0
1070
   178
1070
     0
1070
   271
1070
     2
1070
    43
1040
3.75
1070
    44
1040
1.25
1070
    42
1040
0.625
1070
   147
1040
0.625
1070
    77
1070
     1
1070
   272
1070
     2
1070
   283
1070
     0
1070
   140
1040
2.5
1070
   284
1070
     8
1070
    78
1070
     8
1002
}
  0
DIMENSION
  5
EA2
330
18E2
100
AcDbEntity
  8
BEMASSUNG
100
AcDbDimension
280
     0
  2
*D15
 10
31.0
 20
-3.0
 30
0.0
 11
29.125
 21
-1.5
 31
0.0
 70
    32
 71
     5
 42
3.0
 73
     0
 74
     0
 75
     0
  3
QCADDimStyle
100
AcDbAlignedDimension
 13
35.55999995073815
 23
0.0
 33
0.0
 14
35.55999995073815
 24
-3.0
 34
0.0
 50
90.0
100
AcDbRotatedDimension
1001
ACAD
1000
DSTYLE
1002
{
1070
   279
1070
     2
1070
   171
1070
     3
1070
   143
1040
0.03937007874016
1070
   274
1070
     3
1070
    41
1040
2.5
1070
   141
1040
2.5
1070
   176
1070
     0
1070
   177
1070
     0
1070
   178
1070
     0
1070
   271
1070
     2
1070
    43
1040
3.75
1070
    44
1040
1.25
1070
    42
1040
0.625
1070
   147
1040
0.625
1070
    77
1070
     1
1070
   272
1070
     2
1070
   283
1070
     0
1070
   140
1040
2.5
1070
   284
1070
     8
1070
    78
1070
     8
1002
}
  0
DIMENSION
  5
F7F
330
18E2
100
AcDbEntity
  8
BEMASSUNG
100
AcDbDimension
280
     0
  2
*D16
 10
-54.00000000000009
 20
-2.999999999999996
 30
0.0
 11
-55.87500000000009
 21
53.85
 31
0.0
 70
    32
 71
     5
 42
113.7
 73
     0
 74
     0
 75
     0
  3
QCADDimStyle
100
AcDbAlignedDimension
 13
0.0
 23
110.7
 33
0.0
 14
-7.449999999999999
 24
-2.999999999999999
 34
0.0
 50
90.0
100
AcDbRotatedDimension
1001
ACAD
1000
DSTYLE
1002
{
1070
   279
1070
     2
1070
   171
1070
     3
1070
   143
1040
0.03937007874016
1070
   274
1070
     3
1070
    41
1040
2.5
1070
   141
1040
2.5
1070
   176
1070
     0
1070
   177
1070
     0
1070
   178
1070
     0
1070
   271
1070
     2
1070
    43
1040
3.75
1070
    44
1040
1.25
1070
    42
1040
0.625
1070
   147
1040
0.625
1070
    77
1070
     1
1070
   272
1070
     2
1070
   283
1070
     0
1070
   140
1040
2.5
1070
   284
1070
     8
1070
    78
1070
     8
1002
}
  0
DIMENSION
  5
F80
330
18E2
100
AcDbEntity
  8
BEMASSUNG
100
AcDbDimension
280
     0
  2
*D17
 10
-59.0
 20
-2.999999999999996
 30
0.0
 11
-60.875
 21
55.0
 31
0.0
 70
    32
 71
     5
 42
116.0
 73
     0
 74
     0
 75
     0
  3
QCADDimStyle
100
AcDbAlignedDimension
 13
12.13
 23
113.0
 33
0.0
 14
-7.449999999999999
 24
-2.999999999999999
 34
0.0
 50
90.0
100
AcDbRotatedDimension
1001
ACAD
1000
DSTYLE
1002
{
1070
   279
1070
     2
1070
   171
1070
     3
1070
   143
1040
0.03937007874016
1070
   274
1070
     3
1070
    41
1040
2.5
1070
   141
1040
2.5
1070
   176
1070
     0
1070
   177
1070
     0
1070
   178
1070
     0
1070
   271
1070
     2
1070
    43
1040
3.75
1070
    44
1040
1.25
1070
    42
1040
0.625
1070
   147
1040
0.625
1070
    77
1070
     1
1070
   272
1070
     2
1070
   283
1070
     0
1070
   140
1040
2.5
1070
   284
1070
     8
1070
    78
1070
     8
1002
}
  0
DIMENSION
  5
1058
330
18E2
100
AcDbEntity
  8
BEMASSUNG
100
AcDbDimension
280
     0
  2
*D18
 10
37.63
 20
77.0
 30
0.0
 11
30.58
 21
78.875
 31
0.0
 70
    32
 71
     5
 42
14.1
 73
     0
 74
     0
 75
     0
  3
QCADDimStyle
100
AcDbAlignedDimension
 13
23.53
 23
83.54999999999998
 33
0.0
 14
37.63
 24
83.54999999999997
 34
0.0
100
AcDbRotatedDimension
1001
ACAD
1000
DSTYLE
1002
{
1070
   279
1070
     2
1070
   171
1070
     3
1070
   143
1040
0.03937007874016
1070
   274
1070
     3
1070
    41
1040
2.5
1070
   141
1040
2.5
1070
   176
1070
     0
1070
   177
1070
     0
1070
   178
1070
     0
1070
   271
1070
     2
1070
    43
1040
3.75
1070
    44
1040
1.25
1070
    42
1040
0.625
1070
   147
1040
0.625
1070
    77
1070
     1
1070
   272
1070
     2
1070
   283
1070
     0
1070
   140
1040
2.5
1070
   284
1070
     8
1070
    78
1070
     8
1002
}
  0
DIMENSION
  5
1059
330
18E2
100
AcDbEntity
  8
BEMASSUNG
100
AcDbDimension
280
     0
  2
*D19
 10
55.0
 20
-3.000000000000001
 30
0.0
 11
53.125
 21
18.77499999999999
 31
0.0
 70
    32
 71
     5
 42
43.54999999999999
 73
     0
 74
     0
 75
     0
  3
QCADDimStyle
100
AcDbAlignedDimension
 13
30.58
 23
40.54999999999999
 33
0.0
 14
43.01
 24
-3.0
 34
0.0
 50
90.0
100
AcDbRotatedDimension
1001
ACAD
1000
DSTYLE
1002
{
1070
   279
1070
     2
1070
   171
1070
     3
1070
   143
1040
0.03937007874016
1070
   274
1070
     3
1070
    41
1040
2.5
1070
   141
1040
2.5
1070
   176
1070
     0
1070
   177
1070
     0
1070
   178
1070
     0
1070
   271
1070
     2
1070
    43
1040
3.75
1070
    44
1040
1.25
1070
    42
1040
0.625
1070
   147
1040
0.625
1070
    77
1070
     1
1070
   272
1070
     2
1070
   283
1070
     0
1070
   140
1040
2.5
1070
   284
1070
     8
1070
    78
1070
     8
1002
}
  0
DIMENSION
  5
105A
330
18E2
100
AcDbEntity
  8
BEMASSUNG
100
AcDbDimension
280
     0
  2
*D20
 10
59.99999999999992
 20
-3.000000000000001
 30
0.0
 11
58.12499999999993
 21
29.52499999999999
 31
0.0
 70
    32
 71
     5
 42
65.04999999999998
 73
     0
 74
     0
 75
     0
  3
QCADDimStyle
100
AcDbAlignedDimension
 13
30.58
 23
62.04999999999999
 33
0.0
 14
43.01
 24
-3.0
 34
0.0
 50
90.0
100
AcDbRotatedDimension
1001
ACAD
1000
DSTYLE
1002
{
1070
   279
1070
     2
1070
   171
1070
     3
1070
   143
1040
0.03937007874016
1070
   274
1070
     3
1070
    41
1040
2.5
1070
   141
1040
2.5
1070
   176
1070
     0
1070
   177
1070
     0
1070
   178
1070
     0
1070
   271
1070
     2
1070
    43
1040
3.75
1070
    44
1040
1.25
1070
    42
1040
0.625
1070
   147
1040
0.625
1070
    77
1070
     1
1070
   272
1070
     2
1070
   283
1070
     0
1070
   140
1040
2.5
1070
   284
1070
     8
1070
    78
1070
     8
1002
}
  0
DIMENSION
  5
105B
330
18E2
100
AcDbEntity
  8
BEMASSUNG
100
AcDbDimension
280
     0
  2
*D21
 10
65.0
 20
-3.000000000000001
 30
0.0
 11
63.125
 21
40.27499999999998
 31
0.0
 70
    32
 71
     5
 42
86.54999999999997
 73
     0
 74
     0
 75
     0
  3
QCADDimStyle
100
AcDbAlignedDimension
 13
30.58
 23
83.54999999999997
 33
0.0
 14
43.01
 24
-3.0
 34
0.0
 50
90.0
100
AcDbRotatedDimension
1001
ACAD
1000
DSTYLE
1002
{
1070
   279
1070
     2
1070
   171
1070
     3
1070
   143
1040
0.03937007874016
1070
   274
1070
     3
1070
    41
1040
2.5
1070
   141
1040
2.5
1070
   176
1070
     0
1070
   177
1070
     0
1070
   178
1070
     0
1070
   271
1070
     2
1070
    43
1040
3.75
1070
    44
1040
1.25
1070
    42
1040
0.625
1070
   147
1040
0.625
1070
    77
1070
     1
1070
   272
1070
     2
1070
   283
1070
     0
1070
   140
1040
2.5
1070
   284
1070
     8
1070
    78
1070
     8
1002
}
  0
DIMENSION
  5
105F
330
18E2
100
AcDbEntity
  8
BEMASSUNG
100
AcDbDimension
280
     0
  2
*D22
 10
43.01
 20
9.0
 30
0.0
 11
46.225
 21
11.075
 31
0.0
 70
   160
 71
     5
 42
2.370000000000019
 73
     0
 74
     0
 75
     0
  3
QCADDimStyle
100
AcDbAlignedDimension
 13
40.63999999999998
 23
11.7
 33
0.0
 14
43.01
 24
11.7
 34
0.0
100
AcDbRotatedDimension
1001
ACAD
1000
DSTYLE
1002
{
1070
   279
1070
     2
1070
   171
1070
     3
1070
   143
1040
0.03937007874016
1070
   274
1070
     3
1070
    41
1040
2.5
1070
   141
1040
2.5
1070
   176
1070
     0
1070
   177
1070
     0
1070
   178
1070
     0
1070
   271
1070
     2
1070
    43
1040
3.75
1070
    44
1040
1.25
1070
    42
1040
0.625
1070
   147
1040
0.625
1070
    77
1070
     1
1070
   272
1070
     2
1070
   283
1070
     0
1070
   140
1040
2.5
1070
   284
1070
     8
1070
    78
1070
     8
1002
}
  0
DIMENSION
  5
1060
330
18E2
100
AcDbEntity
  8
BEMASSUNG
100
AcDbDimension
280
     0
  2
*D23
 10
43.01
 20
15.0
 30
0.0
 11
39.28499999999999
 21
18.4375
 31
0.0
 70
    32
 71
     5
 42
7.450000000000017
 73
     0
 74
     0
 75
     0
  3
QCADDimStyle
100
AcDbAlignedDimension
 13
35.55999999999998
 23
11.7
 33
0.0
 14
43.01
 24
11.7
 34
0.0
100
AcDbRotatedDimension
1001
ACAD
1000
DSTYLE
1002
{
1070
   279
1070
     2
1070
   171
1070
     3
1070
   143
1040
0.03937007874016
1070
   274
1070
     3
1070
    41
1040
2.5
1070
   141
1040
2.5
1070
   176
1070
     0
1070
   177
1070
     0
1070
   178
1070
     0
1070
   271
1070
     2
1070
    43
1040
3.75
1070
    44
1040
1.25
1070
    42
1040
0.625
1070
   147
1040
0.625
1070
    77
1070
     1
1070
   272
1070
     2
1070
   283
1070
     0
1070
   140
1040
2.5
1070
   284
1070
     8
1070
    78
1070
     8
1002
}
  0
DIMENSION
  5
1061
330
18E2
100
AcDbEntity
  8
BEMASSUNG
100
AcDbDimension
280
     0
  2
*D24
 10
43.01
 20
19.0
 30
0.0
 11
36.74499999999999
 21
20.875
 31
0.0
 70
    32
 71
     5
 42
12.53000000000002
 73
     0
 74
     0
 75
     0
  3
QCADDimStyle
100
AcDbAlignedDimension
 13
30.47999999999998
 23
11.7
 33
0.0
 14
43.01
 24
11.7
 34
0.0
100
AcDbRotatedDimension
1001
ACAD
1000
DSTYLE
1002
{
1070
   279
1070
     2
1070
   171
1070
     3
1070
   143
1040
0.03937007874016
1070
   274
1070
     3
1070
    41
1040
2.5
1070
   141
1040
2.5
1070
   176
1070
     0
1070
   177
1070
     0
1070
   178
1070
     0
1070
   271
1070
     2
1070
    43
1040
3.75
1070
    44
1040
1.25
1070
    42
1040
0.625
1070
   147
1040
0.625
1070
    77
1070
     1
1070
   272
1070
     2
1070
   283
1070
     0
1070
   140
1040
2.5
1070
   284
1070
     8
1070
    78
1070
     8
1002
}
  0
DIMENSION
  5
162D
330
18E2
100
AcDbEntity
  8
BEMASSUNG
100
AcDbDimension
280
     0
  2
*D25
 10
-7.450000000000004
 20
30.0
 30
0.0
 11
-2.990000000000002
 21
31.875
 31
0.0
 70
    32
 71
     5
 42
8.920000000000003
 73
     0
 74
     0
 75
     0
  3
QCADDimStyle
100
AcDbAlignedDimension
 13
1.47
 23
27.83
 33
0.0
 14
-7.450000000000004
 24
27.82999999999998
 34
0.0
100
AcDbRotatedDimension
1001
ACAD
1000
DSTYLE
1002
{
1070
   279
1070
     2
1070
   171
1070
     3
1070
   143
1040
0.03937007874016
1070
   274
1070
     3
1070
    41
1040
2.5
1070
   141
1040
2.5
1070
   176
1070
     0
1070
   177
1070
     0
1070
   178
1070
     0
1070
   271
1070
     2
1070
    43
1040
3.75
1070
    44
1040
1.25
1070
    42
1040
0.625
1070
   147
1040
0.625
1070
    77
1070
     1
1070
   272
1070
     2
1070
   283
1070
     0
1070
   140
1040
2.5
1070
   284
1070
     8
1070
    78
1070
     8
1002
}
  0
DIMENSION
  5
162E
330
18E2
100
AcDbEntity
  8
BEMASSUNG
100
AcDbDimension
280
     0
  2
*D26
 10
-7.450000000000006
 20
40.0
 30
0.0
 11
-3.115000000000003
 21
43.4375
 31
0.0
 70
    32
 71
     5
 42
8.670000000000005
 73
     0
 74
     0
 75
     0
  3
QCADDimStyle
100
AcDbAlignedDimension
 13
1.22
 23
37.73
 33
0.0
 14
-7.450000000000006
 24
37.72999999999999
 34
0.0
100
AcDbRotatedDimension
1001
ACAD
1000
DSTYLE
1002
{
1070
   279
1070
     2
1070
   171
1070
     3
1070
   143
1040
0.03937007874016
1070
   274
1070
     3
1070
    41
1040
2.5
1070
   141
1040
2.5
1070
   176
1070
     0
1070
   177
1070
     0
1070
   178
1070
     0
1070
   271
1070
     2
1070
    43
1040
3.75
1070
    44
1040
1.25
1070
    42
1040
0.625
1070
   147
1040
0.625
1070
    77
1070
     1
1070
   272
1070
     2
1070
   283
1070
     0
1070
   140
1040
2.5
1070
   284
1070
     8
1070
    78
1070
     8
1002
}
  0
DIMENSION
  5
162F
330
18E2
100
AcDbEntity
  8
BEMASSUNG
100
AcDbDimension
280
     0
  2
*D27
 10
-7.450000000000005
 20
50.0
 30
0.0
 11
1.814999999999998
 21
51.875
 31
0.0
 70
    32
 71
     5
 42
18.53
 73
     0
 74
     0
 75
     0
  3
QCADDimStyle
100
AcDbAlignedDimension
 13
11.08
 23
47.89
 33
0.0
 14
-7.450000000000005
 24
47.88999999999999
 34
0.0
100
AcDbRotatedDimension
1001
ACAD
1000
DSTYLE
1002
{
1070
   279
1070
     2
1070
   171
1070
     3
1070
   143
1040
0.03937007874016
1070
   274
1070
     3
1070
    41
1040
2.5
1070
   141
1040
2.5
1070
   176
1070
     0
1070
   177
1070
     0
1070
   178
1070
     0
1070
   271
1070
     2
1070
    43
1040
3.75
1070
    44
1040
1.25
1070
    42
1040
0.625
1070
   147
1040
0.625
1070
    77
1070
     1
1070
   272
1070
     2
1070
   283
1070
     0
1070
   140
1040
2.5
1070
   284
1070
     8
1070
    78
1070
     8
1002
}
  0
DIMENSION
  5
1631
330
18E2
100
AcDbEntity
  8
BEMASSUNG
100
AcDbDimension
280
     0
  2
*D28
 10
-7.450000000000008
 20
62.0
 30
0.0
 11
3.539999999999996
 21
63.875
 31
0.0
 70
    32
 71
     5
 42
21.98000000000001
 73
     0
 74
     0
 75
     0
  3
QCADDimStyle
100
AcDbAlignedDimension
 13
14.53
 23
66.65
 33
0.0
 14
-7.450000000000008
 24
66.65
 34
0.0
100
AcDbRotatedDimension
1001
ACAD
1000
DSTYLE
1002
{
1070
   279
1070
     2
1070
   171
1070
     3
1070
   143
1040
0.03937007874016
1070
   274
1070
     3
1070
    41
1040
2.5
1070
   141
1040
2.5
1070
   176
1070
     0
1070
   177
1070
     0
1070
   178
1070
     0
1070
   271
1070
     2
1070
    43
1040
3.75
1070
    44
1040
1.25
1070
    42
1040
0.625
1070
   147
1040
0.625
1070
    77
1070
     1
1070
   272
1070
     2
1070
   283
1070
     0
1070
   140
1040
2.5
1070
   284
1070
     8
1070
    78
1070
     8
1002
}
  0
DIMENSION
  5
1633
330
18E2
100
AcDbEntity
  8
BEMASSUNG
100
AcDbDimension
280
     0
  2
*D29
 10
3.557798735846821
 20
67.98119344387611
 30
0.0
 11
2.669005
 21
71.559832
 31
0.0
 70
   163
 71
     5
 42
4.499999999999998
 73
     0
 74
     0
 75
     0
  3
QCADDimStyle
100
AcDbDiametricDimension
 15
-0.6177987358468215
 25
69.65880655612388
 35
0.0
 40
0.0
1001
ACAD
1000
DSTYLE
1002
{
1070
   279
1070
     2
1070
   171
1070
     3
1070
   143
1040
0.03937007874016
1070
   274
1070
     3
1070
    41
1040
2.5
1070
   141
1040
2.5
1070
   176
1070
     0
1070
   177
1070
     0
1070
   178
1070
     0
1070
   271
1070
     2
1070
    43
1040
3.75
1070
    44
1040
1.25
1070
    42
1040
0.625
1070
   147
1040
0.625
1070
    77
1070
     1
1070
   272
1070
     2
1070
   283
1070
     0
1070
   140
1040
2.5
1070
   284
1070
     8
1070
    78
1070
     8
1002
}
  0
DIMENSION
  5
1634
330
18E2
100
AcDbEntity
  8
BEMASSUNG
100
AcDbDimension
280
     0
  2
*D30
 10
2.629517864043796
 20
78.22691190723093
 30
0.0
 11
2.36136
 21
81.501897
 31
0.0
 70
   163
 71
     5
 42
2.999999999999998
 73
     0
 74
     0
 75
     0
  3
QCADDimStyle
100
AcDbDiametricDimension
 15
-0.1895178640437958
 25
79.25308809276909
 35
0.0
 40
0.0
1001
ACAD
1000
DSTYLE
1002
{
1070
   279
1070
     2
1070
   171
1070
     3
1070
   143
1040
0.03937007874016
1070
   274
1070
     3
1070
    41
1040
2.5
1070
   141
1040
2.5
1070
   176
1070
     0
1070
   177
1070
     0
1070
   178
1070
     0
1070
   271
1070
     2
1070
    43
1040
3.75
1070
    44
1040
1.25
1070
    42
1040
0.625
1070
   147
1040
0.625
1070
    77
1070
     1
1070
   272
1070
     2
1070
   283
1070
     0
1070
   140
1040
2.5
1070
   284
1070
     8
1070
    78
1070
     8
1002
}
  0
DIMENSION
  5
1635
330
18E2
100
AcDbEntity
  8
BEMASSUNG
100
AcDbDimension
280
     0
  2
*D31
 10
-14.0
 20
-3.0
 30
0.0
 11
-15.875
 21
11.32
 31
0.0
 70
    32
 71
     5
 42
28.64
 73
     0
 74
     0
 75
     0
  3
QCADDimStyle
100
AcDbAlignedDimension
 13
-0.7
 23
25.64
 33
0.0
 14
-14.0
 24
-3.0
 34
0.0
 50
90.0
100
AcDbRotatedDimension
1001
ACAD
1000
DSTYLE
1002
{
1070
   279
1070
     2
1070
   171
1070
     3
1070
   143
1040
0.03937007874016
1070
   274
1070
     3
1070
    41
1040
2.5
1070
   141
1040
2.5
1070
   176
1070
     0
1070
   177
1070
     0
1070
   178
1070
     0
1070
   271
1070
     2
1070
    43
1040
3.75
1070
    44
1040
1.25
1070
    42
1040
0.625
1070
   147
1040
0.625
1070
    77
1070
     1
1070
   272
1070
     2
1070
   283
1070
     0
1070
   140
1040
2.5
1070
   284
1070
     8
1070
    78
1070
     8
1002
}
  0
DIMENSION
  5
1636
330
18E2
100
AcDbEntity
  8
BEMASSUNG
100
AcDbDimension
280
     0
  2
*D32
 10
-19.0
 20
-3.0
 30
0.0
 11
-20.875
 21
16.28
 31
0.0
 70
    32
 71
     5
 42
38.56
 73
     0
 74
     0
 75
     0
  3
QCADDimStyle
100
AcDbAlignedDimension
 13
-0.95
 23
35.56
 33
0.0
 14
-19.0
 24
-3.0
 34
0.0
 50
90.0
100
AcDbRotatedDimension
1001
ACAD
1000
DSTYLE
1002
{
1070
   279
1070
     2
1070
   171
1070
     3
1070
   143
1040
0.03937007874016
1070
   274
1070
     3
1070
    41
1040
2.5
1070
   141
1040
2.5
1070
   176
1070
     0
1070
   177
1070
     0
1070
   178
1070
     0
1070
   271
1070
     2
1070
    43
1040
3.75
1070
    44
1040
1.25
1070
    42
1040
0.625
1070
   147
1040
0.625
1070
    77
1070
     1
1070
   272
1070
     2
1070
   283
1070
     0
1070
   140
1040
2.5
1070
   284
1070
     8
1070
    78
1070
     8
1002
}
  0
DIMENSION
  5
163C
330
18E2
100
AcDbEntity
  8
BEMASSUNG
100
AcDbDimension
280
     0
  2
*D33
 10
-24.0
 20
-3.0
 30
0.0
 11
-25.875
 21
21.36
 31
0.0
 70
    32
 71
     5
 42
48.72
 73
     0
 74
     0
 75
     0
  3
QCADDimStyle
100
AcDbAlignedDimension
 13
8.91
 23
45.72
 33
0.0
 14
-24.0
 24
-3.0
 34
0.0
 50
90.0
100
AcDbRotatedDimension
1001
ACAD
1000
DSTYLE
1002
{
1070
   279
1070
     2
1070
   171
1070
     3
1070
   143
1040
0.03937007874016
1070
   274
1070
     3
1070
    41
1040
2.5
1070
   141
1040
2.5
1070
   176
1070
     0
1070
   177
1070
     0
1070
   178
1070
     0
1070
   271
1070
     2
1070
    43
1040
3.75
1070
    44
1040
1.25
1070
    42
1040
0.625
1070
   147
1040
0.625
1070
    77
1070
     1
1070
   272
1070
     2
1070
   283
1070
     0
1070
   140
1040
2.5
1070
   284
1070
     8
1070
    78
1070
     8
1002
}
  0
DIMENSION
  5
163D
330
18E2
100
AcDbEntity
  8
BEMASSUNG
100
AcDbDimension
280
     0
  2
*D34
 10
-29.0
 20
-3.0
 30
0.0
 11
-30.875
 21
26.44
 31
0.0
 70
    32
 71
     5
 42
58.88
 73
     0
 74
     0
 75
     0
  3
QCADDimStyle
100
AcDbAlignedDimension
 13
-0.95
 23
55.88
 33
0.0
 14
-29.0
 24
-3.0
 34
0.0
 50
90.0
100
AcDbRotatedDimension
1001
ACAD
1000
DSTYLE
1002
{
1070
   279
1070
     2
1070
   171
1070
     3
1070
   143
1040
0.03937007874016
1070
   274
1070
     3
1070
    41
1040
2.5
1070
   141
1040
2.5
1070
   176
1070
     0
1070
   177
1070
     0
1070
   178
1070
     0
1070
   271
1070
     2
1070
    43
1040
3.75
1070
    44
1040
1.25
1070
    42
1040
0.625
1070
   147
1040
0.625
1070
    77
1070
     1
1070
   272
1070
     2
1070
   283
1070
     0
1070
   140
1040
2.5
1070
   284
1070
     8
1070
    78
1070
     8
1002
}
  0
DIMENSION
  5
163E
330
18E2
100
AcDbEntity
  8
BEMASSUNG
100
AcDbDimension
280
     0
  2
*D35
 10
-34.0
 20
-3.0
 30
0.0
 11
-35.875
 21
32.91
 31
0.0
 70
    32
 71
     5
 42
71.82
 73
     0
 74
     0
 75
     0
  3
QCADDimStyle
100
AcDbAlignedDimension
 13
-0.7
 23
68.82
 33
0.0
 14
-34.0
 24
-3.0
 34
0.0
 50
90.0
100
AcDbRotatedDimension
1001
ACAD
1000
DSTYLE
1002
{
1070
   279
1070
     2
1070
   171
1070
     3
1070
   143
1040
0.03937007874016
1070
   274
1070
     3
1070
    41
1040
2.5
1070
   141
1040
2.5
1070
   176
1070
     0
1070
   177
1070
     0
1070
   178
1070
     0
1070
   271
1070
     2
1070
    43
1040
3.75
1070
    44
1040
1.25
1070
    42
1040
0.625
1070
   147
1040
0.625
1070
    77
1070
     1
1070
   272
1070
     2
1070
   283
1070
     0
1070
   140
1040
2.5
1070
   284
1070
     8
1070
    78
1070
     8
1002
}
  0
DIMENSION
  5
163F
330
18E2
100
AcDbEntity
  8
BEMASSUNG
100
AcDbDimension
280
     0
  2
*D36
 10
-39.0
 20
-3.0
 30
0.0
 11
-40.875
 21
37.87
 31
0.0
 70
    32
 71
     5
 42
81.74000000000001
 73
     0
 74
     0
 75
     0
  3
QCADDimStyle
100
AcDbAlignedDimension
 13
-0.95
 23
78.74000000000001
 33
0.0
 14
-39.0
 24
-3.0
 34
0.0
 50
90.0
100
AcDbRotatedDimension
1001
ACAD
1000
DSTYLE
1002
{
1070
   279
1070
     2
1070
   171
1070
     3
1070
   143
1040
0.03937007874016
1070
   274
1070
     3
1070
    41
1040
2.5
1070
   141
1040
2.5
1070
   176
1070
     0
1070
   177
1070
     0
1070
   178
1070
     0
1070
   271
1070
     2
1070
    43
1040
3.75
1070
    44
1040
1.25
1070
    42
1040
0.625
1070
   147
1040
0.625
1070
    77
1070
     1
1070
   272
1070
     2
1070
   283
1070
     0
1070
   140
1040
2.5
1070
   284
1070
     8
1070
    78
1070
     8
1002
}
  0
DIMENSION
  5
1640
330
18E2
100
AcDbEntity
  8
BEMASSUNG
100
AcDbDimension
280
     0
  2
*D37
 10
-44.0
 20
-3.0
 30
0.0
 11
-45.875
 21
42.95
 31
0.0
 70
    32
 71
     5
 42
91.9
 73
     0
 74
     0
 75
     0
  3
QCADDimStyle
100
AcDbAlignedDimension
 13
8.91
 23
88.9
 33
0.0
 14
-44.0
 24
-3.0
 34
0.0
 50
90.0
100
AcDbRotatedDimension
1001
ACAD
1000
DSTYLE
1002
{
1070
   279
1070
     2
1070
   171
1070
     3
1070
   143
1040
0.03937007874016
1070
   274
1070
     3
1070
    41
1040
2.5
1070
   141
1040
2.5
1070
   176
1070
     0
1070
   177
1070
     0
1070
   178
1070
     0
1070
   271
1070
     2
1070
    43
1040
3.75
1070
    44
1040
1.25
1070
    42
1040
0.625
1070
   147
1040
0.625
1070
    77
1070
     1
1070
   272
1070
     2
1070
   283
1070
     0
1070
   140
1040
2.5
1070
   284
1070
     8
1070
    78
1070
     8
1002
}
  0
DIMENSION
  5
1641
330
18E2
100
AcDbEntity
  8
BEMASSUNG
100
AcDbDimension
280
     0
  2
*D38
 10
-49.0
 20
-3.0
 30
0.0
 11
-50.875
 21
48.03
 31
0.0
 70
    32
 71
     5
 42
102.06
 73
     0
 74
     0
 75
     0
  3
QCADDimStyle
100
AcDbAlignedDimension
 13
-0.95
 23
99.06
 33
0.0
 14
-49.0
 24
-3.0
 34
0.0
 50
90.0
100
AcDbRotatedDimension
1001
ACAD
1000
DSTYLE
1002
{
1070
   279
1070
     2
1070
   171
1070
     3
1070
   143
1040
0.03937007874016
1070
   274
1070
     3
1070
    41
1040
2.5
1070
   141
1040
2.5
1070
   176
1070
     0
1070
   177
1070
     0
1070
   178
1070
     0
1070
   271
1070
     2
1070
    43
1040
3.75
1070
    44
1040
1.25
1070
    42
1040
0.625
1070
   147
1040
0.625
1070
    77
1070
     1
1070
   272
1070
     2
1070
   283
1070
     0
1070
   140
1040
2.5
1070
   284
1070
     8
1070
    78
1070
     8
1002
}
  0
DIMENSION
  5
1642
330
18E2
100
AcDbEntity
  8
BEMASSUNG
100
AcDbDimension
280
     0
  2
*D39
 10
-9.0
 20
-3.0
 30
0.0
 11
-10.875
 21
4.35
 31
0.0
 70
    32
 71
     5
 42
14.7
 73
     0
 74
     0
 75
     0
  3
QCADDimStyle
100
AcDbAlignedDimension
 13
-7.250000000000021
 23
11.7
 33
0.0
 14
-9.0
 24
-3.0
 34
0.0
 50
90.0
100
AcDbRotatedDimension
1001
ACAD
1000
DSTYLE
1002
{
1070
   279
1070
     2
1070
   171
1070
     3
1070
   143
1040
0.03937007874016
1070
   274
1070
     3
1070
    41
1040
2.5
1070
   141
1040
2.5
1070
   176
1070
     0
1070
   177
1070
     0
1070
   178
1070
     0
1070
   271
1070
     2
1070
    43
1040
3.75
1070
    44
1040
1.25
1070
    42
1040
0.625
1070
   147
1040
0.625
1070
    77
1070
     1
1070
   272
1070
     2
1070
   283
1070
     0
1070
   140
1040
2.5
1070
   284
1070
     8
1070
    78
1070
     8
1002
}
  0
DIMENSION
  5
1718
330
18E2
100
AcDbEntity
  8
BEMASSUNG
100
AcDbDimension
280
     0
  2
*D40
 10
13.52043632370832
 20
112.2605606516252
 30
0.0
 11
12.223705
 21
116.794438
 31
0.0
 70
   163
 71
     5
 42
5.099999999999998
 73
     0
 74
     0
 75
     0
  3
QCADDimStyle
100
AcDbDiametricDimension
 15
8.639563676291676
 25
113.7394393483748
 35
0.0
 40
0.0
1001
ACAD
1000
DSTYLE
1002
{
1070
   279
1070
     2
1070
   171
1070
     3
1070
   143
1040
0.03937007874016
1070
   274
1070
     3
1070
    41
1040
2.5
1070
   141
1040
2.5
1070
   176
1070
     0
1070
   177
1070
     0
1070
   178
1070
     0
1070
   271
1070
     2
1070
    43
1040
3.75
1070
    44
1040
1.25
1070
    42
1040
0.625
1070
   147
1040
0.625
1070
    77
1070
     1
1070
   272
1070
     2
1070
   283
1070
     0
1070
   140
1040
2.5
1070
   284
1070
     8
1070
    78
1070
     8
1002
}
  0
DIMENSION
  5
17EE
330
18E2
100
AcDbEntity
  8
BEMASSUNG
100
AcDbDimension
280
     0
  2
*D41
 10
6.0
 20
124.05
 30
0.0
 11
9.4375
 21
122.4
 31
0.0
 70
    32
 71
     5
 42
3.299999999999997
 73
     0
 74
     0
 75
     0
  3
QCADDimStyle
100
AcDbAlignedDimension
 13
2.445403852127459
 23
120.75
 33
0.0
 14
2.44540385212747
 24
124.05
 34
0.0
 50
90.0
100
AcDbRotatedDimension
1001
ACAD
1000
DSTYLE
1002
{
1070
   279
1070
     2
1070
   171
1070
     3
1070
   143
1040
0.03937007874016
1070
   274
1070
     3
1070
    41
1040
2.5
1070
   141
1040
2.5
1070
   176
1070
     0
1070
   177
1070
     0
1070
   178
1070
     0
1070
   271
1070
     2
1070
    43
1040
3.75
1070
    44
1040
1.25
1070
    42
1040
0.625
1070
   147
1040
0.625
1070
    77
1070
     1
1070
   272
1070
     2
1070
   283
1070
     0
1070
   140
1040
2.5
1070
   284
1070
     8
1070
    78
1070
     8
1002
}
  0
ENDSEC
  0
SECTION
  2
OBJECTS
  0
DICTIONARY
  5
18D0
330
0
100
AcDbDictionary
281
     1
  3
ACAD_DETAILVIEWSTYLE
350
1B89
  3
ACAD_GROUP
350
18D1
  3
ACAD_LAYOUT
350
18DD
  3
ACAD_MATERIAL
350
1906
  3
ACAD_MLEADERSTYLE
350
192E
  3
ACAD_MLINESTYLE
350
18DA
  3
ACAD_PLOTSETTINGS
350
18DC
  3
ACAD_PLOTSTYLENAME
350
18D2
  3
ACAD_SCALELIST
350
190A
  3
ACAD_SECTIONVIEWSTYLE
350
1B8A
  3
ACAD_TABLESTYLE
350
192C
  3
ACAD_VISUALSTYLE
350
18ED
  3
ACDB_RECOMPOSE_DATA
350
1B86
  3
AcDbVariableDictionary
350
1B82
  3
QCAD_OBJECTS
350
1932
  0
SUN
  5
1930
330
18EC
100
AcDbSun
 90
        1
290
     0
 63
     7
421
 16777215
 40
1.0
291
     1
 91
  2455826
 92
 54000000
292
     0
 70
     2
 71
   256
280
     1
  0
DICTIONARY
  5
1B89
102
{ACAD_REACTORS
330
18D0
102
}
330
18D0
100
AcDbDictionary
281
     1
  0
DICTIONARY
  5
18D1
102
{ACAD_REACTORS
330
18D0
102
}
330
18D0
100
AcDbDictionary
281
     1
  0
DICTIONARY
  5
18DD
102
{ACAD_REACTORS
330
18D0
102
}
330
18D0
100
AcDbDictionary
281
     1
  3
Layout1
350
18E1
  3
Layout2
350
18E9
  3
Model
350
18E5
  0
DICTIONARY
  5
1906
102
{ACAD_REACTORS
330
18D0
102
}
330
18D0
100
AcDbDictionary
281
     1
  3
ByBlock
350
1908
  3
ByLayer
350
1907
  3
Global
350
1909
  0
DICTIONARY
  5
192E
102
{ACAD_REACTORS
330
18D0
102
}
330
18D0
100
AcDbDictionary
281
     1
  3
Standard
350
192F
  0
DICTIONARY
  5
18DA
102
{ACAD_REACTORS
330
18D0
102
}
330
18D0
100
AcDbDictionary
281
     1
  3
Standard
350
18DB
  0
DICTIONARY
  5
18DC
102
{ACAD_REACTORS
330
18D0
102
}
330
18D0
100
AcDbDictionary
281
     1
  0
ACDBDICTIONARYWDFLT
  5
18D2
102
{ACAD_REACTORS
330
18D0
102
}
330
18D0
100
AcDbDictionary
281
     1
  3
Normal
350
18D3
100
AcDbDictionaryWithDefault
340
18D3
  0
DICTIONARY
  5
190A
102
{ACAD_REACTORS
330
18D0
102
}
330
18D0
100
AcDbDictionary
281
     1
  3
A0
350
190B
  3
A1
350
190C
  3
A2
350
190D
  3
A3
350
190E
  3
A4
350
190F
  3
A5
350
1910
  3
A6
350
1911
  3
A7
350
1912
  3
A8
350
1913
  3
A9
350
1914
  3
B0
350
1915
  3
B1
350
1916
  3
B2
350
1917
  3
B3
350
1918
  3
B4
350
1919
  3
B5
350
191A
  3
B6
350
191B
  3
B7
350
191C
  3
B8
350
191D
  3
B9
350
191E
  3
C0
350
191F
  3
C1
350
1920
  3
C2
350
1921
  3
C3
350
1922
  3
C4
350
1923
  3
C5
350
1924
  3
C6
350
1925
  3
C7
350
1926
  3
C8
350
1927
  3
C9
350
1928
  3
D0
350
1929
  3
D1
350
192A
  3
D2
350
192B
  0
DICTIONARY
  5
1B8A
102
{ACAD_REACTORS
330
18D0
102
}
330
18D0
100
AcDbDictionary
281
     1
  0
DICTIONARY
  5
192C
102
{ACAD_REACTORS
330
18D0
102
}
330
18D0
100
AcDbDictionary
281
     1
  3
Standard
350
192D
  0
DICTIONARY
  5
18ED
102
{ACAD_REACTORS
330
18D0
102
}
330
18D0
100
AcDbDictionary
281
     1
  3
2dWireframe
350
18F2
  3
Basic
350
18F5
  3
Brighten
350
18F9
  3
ColorChange
350
18FD
  3
Conceptual
350
18F7
  3
Dim
350
18F8
  3
EdgeColorOff
350
1900
  3
Facepattern
350
18FC
  3
Flat
350
18EE
  3
FlatWithEdges
350
18EF
  3
Gouraud
350
18F0
  3
GouraudWithEdges
350
18F1
  3
Hidden
350
18F4
  3
JitterOff
350
18FE
  3
Linepattern
350
18FB
  3
OverhangOff
350
18FF
  3
Realistic
350
18F6
  3
Shaded
350
1905
  3
Shaded with edges
350
1904
  3
Shades of Gray
350
1901
  3
Sketchy
350
1902
  3
Thicken
350
18FA
  3
Wireframe
350
18F3
  3
X-Ray
350
1903
  0
XRECORD
  5
1B86
102
{ACAD_REACTORS
330
18D0
102
}
330
18D0
100
AcDbXrecord
280
     1
 90
        1
330
192D
  0
DICTIONARY
  5
1B82
102
{ACAD_REACTORS
330
18D0
102
}
330
18D0
100
AcDbDictionary
281
     1
  3
CANNOSCALE
350
1B83
  3
CMLEADERSTYLE
350
1B88
  3
CTABLESTYLE
350
1B87
  0
DICTIONARY
  5
1932
102
{ACAD_REACTORS
330
18D0
102
}
330
18D0
100
AcDbDictionary
281
     1
  3
ColorSettings/BackgroundColor
350
1934
  3
ColorSettings/ColorMode
350
1935
  3
Grid/DisplayGrid00
350
1936
  3
Grid/DisplayGrid01
350
1937
  3
Grid/DisplayGrid02
350
1938
  3
Grid/DisplayGrid03
350
1939
  3
Grid/GridSpacingX00
350
193A
  3
Grid/GridSpacingX01
350
193B
  3
Grid/GridSpacingX02
350
193C
  3
Grid/GridSpacingX03
350
193D
  3
Grid/GridSpacingY00
350
193E
  3
Grid/GridSpacingY01
350
193F
  3
Grid/GridSpacingY02
350
1940
  3
Grid/GridSpacingY03
350
1941
  3
Grid/IsometricGrid00
350
1942
  3
Grid/IsometricGrid01
350
1943
  3
Grid/IsometricGrid02
350
1944
  3
Grid/IsometricGrid03
350
1945
  3
Grid/IsometricProjection00
350
1946
  3
Grid/IsometricProjection01
350
1947
  3
Grid/IsometricProjection02
350
1948
  3
Grid/IsometricProjection03
350
1949
  3
Grid/MetaGridSpacingX00
350
194A
  3
Grid/MetaGridSpacingX01
350
194B
  3
Grid/MetaGridSpacingX02
350
194C
  3
Grid/MetaGridSpacingX03
350
194D
  3
Grid/MetaGridSpacingY00
350
194E
  3
Grid/MetaGridSpacingY01
350
194F
  3
Grid/MetaGridSpacingY02
350
1950
  3
Grid/MetaGridSpacingY03
350
1951
  3
MultiPageSettings/Columns
350
1952
  3
MultiPageSettings/GlueMarginsBottom
350
1953
  3
MultiPageSettings/GlueMarginsLeft
350
1954
  3
MultiPageSettings/GlueMarginsRight
350
1955
  3
MultiPageSettings/GlueMarginsTop
350
1956
  3
MultiPageSettings/PrintCropMarks
350
1957
  3
MultiPageSettings/Rows
350
1958
  3
PageSettings/OffsetX
350
1959
  3
PageSettings/OffsetY
350
195A
  3
PageSettings/PageOrientation
350
195B
  3
PageSettings/PaperHeight
350
195C
  3
PageSettings/PaperWidth
350
195D
  3
PageSettings/Scale
350
195E
  3
PageSettings/ShowPaperBorders
350
195F
  3
QCADVersion
350
1960
  3
UnitSettings/PaperUnit
350
1961
  0
LAYOUT
  5
18E1
102
{ACAD_REACTORS
330
18DD
102
}
330
18DD
100
AcDbPlotSettings
  1

  2
none_device
  4

  6

 40
0.0
 41
0.0
 42
0.0
 43
0.0
 44
0.0
 45
0.0
 46
0.0
 47
0.0
 48
0.0
 49
0.0
140
0.0
141
0.0
142
1.0
143
1.0
 70
   688
 72
     0
 73
     0
 74
     5
  7

 75
    16
 76
     0
 77
     2
 78
   300
147
1.0
148
0.0
149
0.0
100
AcDbLayout
  1
Layout1
 70
     1
 71
     1
 10
0.0
 20
0.0
 11
420.0
 21
297.0
 12
0.0
 22
0.0
 32
0.0
 14
1.000000000000000E+20
 24
1.000000000000000E+20
 34
1.000000000000000E+20
 15
-1.000000000000000E+20
 25
-1.000000000000000E+20
 35
-1.000000000000000E+20
146
0.0
 13
0.0
 23
0.0
 33
0.0
 16
1.0
 26
0.0
 36
0.0
 17
0.0
 27
1.0
 37
0.0
 76
     0
330
18DE
  0
LAYOUT
  5
18E9
102
{ACAD_REACTORS
330
18DD
102
}
330
18DD
100
AcDbPlotSettings
  1

  2
none_device
  4

  6

 40
0.0
 41
0.0
 42
0.0
 43
0.0
 44
0.0
 45
0.0
 46
0.0
 47
0.0
 48
0.0
 49
0.0
140
0.0
141
0.0
142
1.0
143
1.0
 70
   688
 72
     0
 73
     0
 74
     5
  7

 75
    16
 76
     0
 77
     2
 78
   300
147
1.0
148
0.0
149
0.0
100
AcDbLayout
  1
Layout2
 70
     1
 71
     2
 10
0.0
 20
0.0
 11
0.0
 21
0.0
 12
0.0
 22
0.0
 32
0.0
 14
0.0
 24
0.0
 34
0.0
 15
0.0
 25
0.0
 35
0.0
146
0.0
 13
0.0
 23
0.0
 33
0.0
 16
1.0
 26
0.0
 36
0.0
 17
0.0
 27
1.0
 37
0.0
 76
     0
330
18E6
  0
LAYOUT
  5
18E5
102
{ACAD_REACTORS
330
18DD
102
}
330
18DD
100
AcDbPlotSettings
  1

  2
none_device
  4
Letter_(8.50_x_11.00_Inches)
  6

 40
6.35
 41
6.35
 42
6.35000508
 43
6.35000508
 44
215.9
 45
279.4
 46
0.0
 47
0.0
 48
0.0
 49
0.0
140
0.0
141
0.0
142
1.0
143
1.0
 70
  1712
 72
     0
 73
     0
 74
     0
  7

 75
     0
 76
     0
 77
     2
 78
   300
147
1.0
148
0.0
149
0.0
100
AcDbLayout
  1
Model
 70
     1
 71
     0
 10
0.0
 20
0.0
 11
420.0
 21
297.0
 12
0.0
 22
0.0
 32
0.0
 14
1.000000000000000E+20
 24
1.000000000000000E+20
 34
1.000000000000000E+20
 15
-1.000000000000000E+20
 25
-1.000000000000000E+20
 35
-1.000000000000000E+20
146
0.0
 13
0.0
 23
0.0
 33
0.0
 16
1.0
 26
0.0
 36
0.0
 17
0.0
 27
1.0
 37
0.0
 76
     0
330
18E2
331
18EC
  0
MATERIAL
  5
1908
102
{ACAD_REACTORS
330
1906
102
}
330
1906
100
AcDbMaterial
  1
ByBlock
 72
     1
 94
      127
  0
MATERIAL
  5
1907
102
{ACAD_REACTORS
330
1906
102
}
330
1906
100
AcDbMaterial
  1
ByLayer
 72
     1
 94
      127
  0
MATERIAL
  5
1909
102
{ACAD_REACTORS
330
1906
102
}
330
1906
100
AcDbMaterial
  1
Global
 72
     1
 94
      127
  0
MLEADERSTYLE
  5
192F
102
{ACAD_REACTORS
330
192E
102
}
330
192E
100
AcDbMLeaderStyle
179
     2
170
     2
171
     1
172
     0
 90
        2
 40
0.0
 41
0.0
173
     1
 91
-1056964608
340
18D7
 92
       -2
290
     1
 42
0.09
291
     1
 43
0.36
  3
Standard
341
0
 44
0.18
300

342
18D5
174
     1
178
     6
175
     1
176
     0
 93
-1056964608
 45
0.18
292
     0
297
     0
 46
0.18
343
0
 94
-1056964608
 47
1.0
 49
1.0
140
1.0
293
     1
141
0.0
294
     1
177
     0
142
1.0
295
     0
296
     0
143
0.125
271
     0
272
     9
273
     9
298
     0
  0
MLINESTYLE
  5
18DB
102
{ACAD_REACTORS
330
18DA
102
}
330
18DA
100
AcDbMlineStyle
  2
Standard
 70
     0
  3

 62
   256
 51
90.0
 52
90.0
 71
     2
 49
0.5
 62
   256
  6
BYLAYER
 49
-0.5
 62
   256
  6
BYLAYER
  0
ACDBPLACEHOLDER
  5
18D3
102
{ACAD_REACTORS
330
18D2
102
}
330
18D2
  0
SCALE
  5
190B
102
{ACAD_REACTORS
330
190A
102
}
330
190A
100
AcDbScale
 70
     0
300
1:1
140
1.0
141
1.0
290
     1
  0
SCALE
  5
190C
102
{ACAD_REACTORS
330
190A
102
}
330
190A
100
AcDbScale
 70
     0
300
1:2
140
1.0
141
2.0
290
     0
  0
SCALE
  5
190D
102
{ACAD_REACTORS
330
190A
102
}
330
190A
100
AcDbScale
 70
     0
300
1:4
140
1.0
141
4.0
290
     0
  0
SCALE
  5
190E
102
{ACAD_REACTORS
330
190A
102
}
330
190A
100
AcDbScale
 70
     0
300
1:5
140
1.0
141
5.0
290
     0
  0
SCALE
  5
190F
102
{ACAD_REACTORS
330
190A
102
}
330
190A
100
AcDbScale
 70
     0
300
1:8
140
1.0
141
8.0
290
     0
  0
SCALE
  5
1910
102
{ACAD_REACTORS
330
190A
102
}
330
190A
100
AcDbScale
 70
     0
300
1:10
140
1.0
141
10.0
290
     0
  0
SCALE
  5
1911
102
{ACAD_REACTORS
330
190A
102
}
330
190A
100
AcDbScale
 70
     0
300
1:16
140
1.0
141
16.0
290
     0
  0
SCALE
  5
1912
102
{ACAD_REACTORS
330
190A
102
}
330
190A
100
AcDbScale
 70
     0
300
1:20
140
1.0
141
20.0
290
     0
  0
SCALE
  5
1913
102
{ACAD_REACTORS
330
190A
102
}
330
190A
100
AcDbScale
 70
     0
300
1:30
140
1.0
141
30.0
290
     0
  0
SCALE
  5
1914
102
{ACAD_REACTORS
330
190A
102
}
330
190A
100
AcDbScale
 70
     0
300
1:40
140
1.0
141
40.0
290
     0
  0
SCALE
  5
1915
102
{ACAD_REACTORS
330
190A
102
}
330
190A
100
AcDbScale
 70
     0
300
1:50
140
1.0
141
50.0
290
     0
  0
SCALE
  5
1916
102
{ACAD_REACTORS
330
190A
102
}
330
190A
100
AcDbScale
 70
     0
300
1:100
140
1.0
141
100.0
290
     0
  0
SCALE
  5
1917
102
{ACAD_REACTORS
330
190A
102
}
330
190A
100
AcDbScale
 70
     0
300
2:1
140
2.0
141
1.0
290
     0
  0
SCALE
  5
1918
102
{ACAD_REACTORS
330
190A
102
}
330
190A
100
AcDbScale
 70
     0
300
4:1
140
4.0
141
1.0
290
     0
  0
SCALE
  5
1919
102
{ACAD_REACTORS
330
190A
102
}
330
190A
100
AcDbScale
 70
     0
300
8:1
140
8.0
141
1.0
290
     0
  0
SCALE
  5
191A
102
{ACAD_REACTORS
330
190A
102
}
330
190A
100
AcDbScale
 70
     0
300
10:1
140
10.0
141
1.0
290
     0
  0
SCALE
  5
191B
102
{ACAD_REACTORS
330
190A
102
}
330
190A
100
AcDbScale
 70
     0
300
100:1
140
100.0
141
1.0
290
     0
  0
SCALE
  5
191C
102
{ACAD_REACTORS
330
190A
102
}
330
190A
100
AcDbScale
 70
     0
300
1/128" = 1'-0"
140
0.0078125
141
12.0
290
     0
  0
SCALE
  5
191D
102
{ACAD_REACTORS
330
190A
102
}
330
190A
100
AcDbScale
 70
     0
300
1/64" = 1'-0"
140
0.015625
141
12.0
290
     0
  0
SCALE
  5
191E
102
{ACAD_REACTORS
330
190A
102
}
330
190A
100
AcDbScale
 70
     0
300
1/32" = 1'-0"
140
0.03125
141
12.0
290
     0
  0
SCALE
  5
191F
102
{ACAD_REACTORS
330
190A
102
}
330
190A
100
AcDbScale
 70
     0
300
1/16" = 1'-0"
140
0.0625
141
12.0
290
     0
  0
SCALE
  5
1920
102
{ACAD_REACTORS
330
190A
102
}
330
190A
100
AcDbScale
 70
     0
300
3/32" = 1'-0"
140
0.09375
141
12.0
290
     0
  0
SCALE
  5
1921
102
{ACAD_REACTORS
330
190A
102
}
330
190A
100
AcDbScale
 70
     0
300
1/8" = 1'-0"
140
0.125
141
12.0
290
     0
  0
SCALE
  5
1922
102
{ACAD_REACTORS
330
190A
102
}
330
190A
100
AcDbScale
 70
     0
300
3/16" = 1'-0"
140
0.1875
141
12.0
290
     0
  0
SCALE
  5
1923
102
{ACAD_REACTORS
330
190A
102
}
330
190A
100
AcDbScale
 70
     0
300
1/4" = 1'-0"
140
0.25
141
12.0
290
     0
  0
SCALE
  5
1924
102
{ACAD_REACTORS
330
190A
102
}
330
190A
100
AcDbScale
 70
     0
300
3/8" = 1'-0"
140
0.375
141
12.0
290
     0
  0
SCALE
  5
1925
102
{ACAD_REACTORS
330
190A
102
}
330
190A
100
AcDbScale
 70
     0
300
1/2" = 1'-0"
140
0.5
141
12.0
290
     0
  0
SCALE
  5
1926
102
{ACAD_REACTORS
330
190A
102
}
330
190A
100
AcDbScale
 70
     0
300
3/4" = 1'-0"
140
0.75
141
12.0
290
     0
  0
SCALE
  5
1927
102
{ACAD_REACTORS
330
190A
102
}
330
190A
100
AcDbScale
 70
     0
300
1" = 1'-0"
140
1.0
141
12.0
290
     0
  0
SCALE
  5
1928
102
{ACAD_REACTORS
330
190A
102
}
330
190A
100
AcDbScale
 70
     0
300
1-1/2" = 1'-0"
140
1.5
141
12.0
290
     0
  0
SCALE
  5
1929
102
{ACAD_REACTORS
330
190A
102
}
330
190A
100
AcDbScale
 70
     0
300
3" = 1'-0"
140
3.0
141
12.0
290
     0
  0
SCALE
  5
192A
102
{ACAD_REACTORS
330
190A
102
}
330
190A
100
AcDbScale
 70
     0
300
6" = 1'-0"
140
6.0
141
12.0
290
     0
  0
SCALE
  5
192B
102
{ACAD_REACTORS
330
190A
102
}
330
190A
100
AcDbScale
 70
     0
300
1'-0" = 1'-0"
140
12.0
141
12.0
290
     0
  0
TABLESTYLE
  5
192D
102
{ACAD_REACTORS
330
192C
102
}
102
{ACAD_XDICTIONARY
360
1B84
102
}
330
192C
100
AcDbTableStyle
  3
Standard
 70
     0
 71
     0
 40
0.06
 41
0.06
280
     0
281
     0
  7
Standard
140
0.18
170
     2
 62
     0
 63
   257
283
     0
 90
        4
 91
        0
  1

274
    -2
284
     1
 64
     0
275
    -2
285
     1
 65
     0
276
    -2
286
     1
 66
     0
277
    -2
287
     1
 67
     0
278
    -2
288
     1
 68
     0
279
    -2
289
     1
 69
     0
  7
Standard
140
0.25
170
     5
 62
     0
 63
   257
283
     0
 90
        4
 91
        0
  1

274
    -2
284
     1
 64
     0
275
    -2
285
     1
 65
     0
276
    -2
286
     1
 66
     0
277
    -2
287
     1
 67
     0
278
    -2
288
     1
 68
     0
279
    -2
289
     1
 69
     0
  7
Standard
140
0.18
170
     5
 62
     0
 63
   257
283
     0
 90
        4
 91
        0
  1

274
    -2
284
     1
 64
     0
275
    -2
285
     1
 65
     0
276
    -2
286
     1
 66
     0
277
    -2
287
     1
 67
     0
278
    -2
288
     1
 68
     0
279
    -2
289
     1
 69
     0
  0
VISUALSTYLE
  5
18F2
102
{ACAD_REACTORS
330
18ED
102
}
330
18ED
100
AcDbVisualStyle
  2
2dWireframe
 70
     4
177
     3
291
     0
 70
    58
 90
        0
176
     1
 90
        2
176
     1
 90
        0
176
     1
 90
        0
176
     1
 40
0.6
176
     1
 40
30.0
176
     1
 62
     7
420
 16777215
176
     1
 90
        1
176
     1
 90
        4
176
     1
 62
     7
176
     1
 62
   257
176
     1
 90
        1
176
     1
 90
        1
176
     1
 40
1.0
176
     1
 90
        0
176
     1
 62
   257
176
     1
 40
1.0
176
     1
 90
        1
176
     1
 90
        6
176
     1
 90
        2
176
     1
 62
     7
176
     1
 90
        5
176
     1
 90
        0
176
     1
 90
        0
176
     1
290
     0
176
     1
 90
        1
176
     1
 40
0.0
176
     1
 90
        0
176
     1
290
     1
176
     1
290
     1
176
     1
290
     0
176
     1
290
     0
176
     1
290
     0
176
     1
290
     0
176
     1
290
     0
176
     1
290
     0
176
     1
290
     0
176
     1
 90
       50
176
     1
 40
0.0
176
     1
 40
1.0
176
     1
 90
        0
176
     1
 62
   178
420
        0
176
     1
 90
       50
176
     1
 90
        3
176
     1
 62
     5
420
      255
176
     1
290
     0
176
     1
 90
       50
176
     1
 90
       50
176
     1
 90
       50
176
     1
290
     0
176
     1
 90
       50
176
     1
 62
   256
176
     0
 40
1.0
176
     0
 90
        2
176
     1
  1
strokes_ogs.tif
176
     1
290
     0
176
     1
 40
1.0
176
     1
 40
1.0
176
     1
  0
VISUALSTYLE
  5
18F5
102
{ACAD_REACTORS
330
18ED
102
}
330
18ED
100
AcDbVisualStyle
  2
Basic
 70
     7
177
     3
291
     1
 70
    58
 90
        1
176
     1
 90
        0
176
     1
 90
        1
176
     1
 90
        0
176
     1
 40
0.6
176
     1
 40
30.0
176
     1
 62
     7
420
 16777215
176
     1
 90
        0
176
     1
 90
        4
176
     1
 62
     7
176
     1
 62
   257
176
     1
 90
        1
176
     1
 90
        1
176
     1
 40
1.0
176
     1
 90
        8
176
     1
 62
     7
176
     1
 40
1.0
176
     1
 90
        1
176
     1
 90
        6
176
     1
 90
        2
176
     1
 62
     7
176
     1
 90
        5
176
     1
 90
        0
176
     1
 90
        0
176
     1
290
     0
176
     1
 90
        1
176
     1
 40
0.0
176
     1
 90
        0
176
     1
290
     0
176
     1
290
     1
176
     1
290
     1
176
     1
290
     0
176
     1
290
     0
176
     1
290
     0
176
     1
290
     0
176
     1
290
     0
176
     1
290
     0
176
     1
 90
       50
176
     1
 40
0.0
176
     1
 40
1.0
176
     1
 90
        0
176
     1
 62
   178
420
        0
176
     1
 90
       50
176
     1
 90
        3
176
     1
 62
     5
420
      255
176
     1
290
     0
176
     1
 90
       50
176
     1
 90
       50
176
     1
 90
       50
176
     1
290
     0
176
     1
 90
       50
176
     1
 62
   256
176
     0
 40
1.0
176
     0
 90
        2
176
     1
  1
strokes_ogs.tif
176
     1
290
     0
176
     1
 40
1.0
176
     1
 40
1.0
176
     1
  0
VISUALSTYLE
  5
18F9
102
{ACAD_REACTORS
330
18ED
102
}
330
18ED
100
AcDbVisualStyle
  2
Brighten
 70
    12
177
     3
291
     1
 70
    58
 90
        2
176
     1
 90
        2
176
     1
 90
        0
176
     1
 90
        0
176
     1
 40
0.6
176
     1
 40
30.0
176
     1
 62
     7
420
 16777215
176
     1
 90
        1
176
     1
 90
        4
176
     1
 62
     7
176
     1
 62
   257
176
     1
 90
        1
176
     1
 90
        1
176
     1
 40
1.0
176
     1
 90
        8
176
     1
 62
     7
176
     1
 40
1.0
176
     1
 90
        1
176
     1
 90
        6
176
     1
 90
        2
176
     1
 62
     7
176
     1
 90
        5
176
     1
 90
        0
176
     1
 90
        0
176
     1
290
     0
176
     1
 90
        1
176
     1
 40
50.0
176
     1
 90
        0
176
     1
290
     0
176
     1
290
     1
176
     1
290
     1
176
     1
290
     0
176
     1
290
     0
176
     1
290
     0
176
     1
290
     0
176
     1
290
     0
176
     1
290
     0
176
     1
 90
       50
176
     1
 40
0.0
176
     1
 40
1.0
176
     1
 90
        0
176
     1
 62
   178
420
        0
176
     1
 90
       50
176
     1
 90
        3
176
     1
 62
     5
420
      255
176
     1
290
     0
176
     1
 90
       50
176
     1
 90
       50
176
     1
 90
       50
176
     1
290
     0
176
     1
 90
       50
176
     1
 62
   256
176
     0
 40
1.0
176
     0
 90
        2
176
     1
  1
strokes_ogs.tif
176
     1
290
     0
176
     1
 40
1.0
176
     1
 40
1.0
176
     1
  0
VISUALSTYLE
  5
18FD
102
{ACAD_REACTORS
330
18ED
102
}
330
18ED
100
AcDbVisualStyle
  2
ColorChange
 70
    16
177
     3
291
     1
 70
    58
 90
        2
176
     1
 90
        2
176
     1
 90
        3
176
     1
 90
        0
176
     1
 40
0.6
176
     1
 40
30.0
176
     1
 62
     8
420
  8421504
176
     1
 90
        1
176
     1
 90
        4
176
     1
 62
     7
176
     1
 62
   257
176
     1
 90
        1
176
     1
 90
        1
176
     1
 40
1.0
176
     1
 90
        8
176
     1
 62
     8
420
  8421504
176
     1
 40
1.0
176
     1
 90
        1
176
     1
 90
        6
176
     1
 90
        2
176
     1
 62
     7
176
     1
 90
        5
176
     1
 90
        0
176
     1
 90
        0
176
     1
290
     0
176
     1
 90
        1
176
     1
 40
0.0
176
     1
 90
        0
176
     1
290
     0
176
     1
290
     1
176
     1
290
     1
176
     1
290
     0
176
     1
290
     0
176
     1
290
     0
176
     1
290
     0
176
     1
290
     0
176
     1
290
     0
176
     1
 90
       50
176
     1
 40
0.0
176
     1
 40
1.0
176
     1
 90
        0
176
     1
 62
   178
420
        0
176
     1
 90
       50
176
     1
 90
        3
176
     1
 62
     5
420
      255
176
     1
290
     0
176
     1
 90
       50
176
     1
 90
       50
176
     1
 90
       50
176
     1
290
     0
176
     1
 90
       50
176
     1
 62
   256
176
     0
 40
1.0
176
     0
 90
        2
176
     1
  1
strokes_ogs.tif
176
     1
290
     0
176
     1
 40
1.0
176
     1
 40
1.0
176
     1
  0
VISUALSTYLE
  5
18F7
102
{ACAD_REACTORS
330
18ED
102
}
330
18ED
100
AcDbVisualStyle
  2
Conceptual
 70
     9
177
     3
291
     0
 70
    58
 90
        3
176
     1
 90
        2
176
     1
 90
        0
176
     1
 90
        0
176
     1
 40
0.6
176
     1
 40
30.0
176
     1
 62
     7
420
 16777215
176
     1
 90
        2
176
     1
 90
        2
176
     1
 62
     7
176
     1
 62
   257
176
     1
 90
        1
176
     1
 90
        1
176
     1
 40
179.0
176
     1
 90
        8
176
     1
 62
     7
176
     1
 40
1.0
176
     1
 90
        1
176
     1
 90
        6
176
     1
 90
        2
176
     1
 62
     7
176
     1
 90
        3
176
     1
 90
        0
176
     1
 90
        0
176
     1
290
     0
176
     1
 90
        1
176
     1
 40
0.0
176
     1
 90
        0
176
     1
290
     0
176
     1
290
     1
176
     1
290
     1
176
     1
290
     0
176
     1
290
     0
176
     1
290
     0
176
     1
290
     0
176
     1
290
     0
176
     1
290
     0
176
     1
 90
       50
176
     1
 40
0.0
176
     1
 40
1.0
176
     1
 90
        0
176
     1
 62
   178
420
        0
176
     1
 90
       50
176
     1
 90
        3
176
     1
 62
     5
420
      255
176
     1
290
     0
176
     1
 90
       50
176
     1
 90
       50
176
     1
 90
       50
176
     1
290
     0
176
     1
 90
       50
176
     1
 62
   256
176
     0
 40
1.0
176
     0
 90
        2
176
     1
  1
strokes_ogs.tif
176
     1
290
     0
176
     1
 40
1.0
176
     1
 40
1.0
176
     1
  0
VISUALSTYLE
  5
18F8
102
{ACAD_REACTORS
330
18ED
102
}
330
18ED
100
AcDbVisualStyle
  2
Dim
 70
    11
177
     3
291
     1
 70
    58
 90
        2
176
     1
 90
        2
176
     1
 90
        0
176
     1
 90
        0
176
     1
 40
0.6
176
     1
 40
30.0
176
     1
 62
     7
420
 16777215
176
     1
 90
        1
176
     1
 90
        4
176
     1
 62
     7
176
     1
 62
   257
176
     1
 90
        1
176
     1
 90
        1
176
     1
 40
1.0
176
     1
 90
        8
176
     1
 62
     7
176
     1
 40
1.0
176
     1
 90
        1
176
     1
 90
        6
176
     1
 90
        2
176
     1
 62
     7
176
     1
 90
        5
176
     1
 90
        0
176
     1
 90
        0
176
     1
290
     0
176
     1
 90
        1
176
     1
 40
-50.0
176
     1
 90
        0
176
     1
290
     0
176
     1
290
     1
176
     1
290
     1
176
     1
290
     0
176
     1
290
     0
176
     1
290
     0
176
     1
290
     0
176
     1
290
     0
176
     1
290
     0
176
     1
 90
       50
176
     1
 40
0.0
176
     1
 40
1.0
176
     1
 90
        0
176
     1
 62
   178
420
        0
176
     1
 90
       50
176
     1
 90
        3
176
     1
 62
     5
420
      255
176
     1
290
     0
176
     1
 90
       50
176
     1
 90
       50
176
     1
 90
       50
176
     1
290
     0
176
     1
 90
       50
176
     1
 62
   256
176
     0
 40
1.0
176
     0
 90
        2
176
     1
  1
strokes_ogs.tif
176
     1
290
     0
176
     1
 40
1.0
176
     1
 40
1.0
176
     1
  0
VISUALSTYLE
  5
1900
102
{ACAD_REACTORS
330
18ED
102
}
330
18ED
100
AcDbVisualStyle
  2
EdgeColorOff
 70
    22
177
     3
291
     1
 70
    58
 90
        2
176
     0
 90
        2
176
     0
 90
        0
176
     0
 90
        0
176
     0
 40
0.6
176
     0
 40
30.0
176
     0
 62
     7
420
 16777215
176
     0
 90
        1
176
     0
 90
        4
176
     0
 62
     7
176
     0
 62
   257
176
     0
 90
        1
176
     0
 90
        1
176
     0
 40
1.0
176
     0
 90
        8
176
     2
 62
     7
176
     0
 40
1.0
176
     0
 90
        1
176
     0
 90
        6
176
     0
 90
        2
176
     0
 62
     7
176
     0
 90
        5
176
     0
 90
        0
176
     0
 90
        0
176
     0
290
     0
176
     0
 90
        1
176
     0
 40
0.0
176
     0
 90
        0
176
     0
290
     0
176
     0
290
     1
176
     0
290
     1
176
     0
290
     0
176
     0
290
     0
176
     0
290
     0
176
     0
290
     0
176
     0
290
     0
176
     0
290
     0
176
     0
 90
       50
176
     0
 40
0.0
176
     0
 40
1.0
176
     0
 90
        0
176
     0
 62
   178
420
        0
176
     0
 90
       50
176
     0
 90
        3
176
     0
 62
     5
420
      255
176
     0
290
     0
176
     0
 90
       50
176
     0
 90
       50
176
     0
 90
       50
176
     0
290
     0
176
     0
 90
       50
176
     0
 62
   256
176
     0
 40
1.0
176
     0
 90
        2
176
     0
  1
strokes_ogs.tif
176
     0
290
     0
176
     0
 40
1.0
176
     0
 40
1.0
176
     0
  0
VISUALSTYLE
  5
18FC
102
{ACAD_REACTORS
330
18ED
102
}
330
18ED
100
AcDbVisualStyle
  2
Facepattern
 70
    15
177
     3
291
     1
 70
    58
 90
        2
176
     1
 90
        2
176
     1
 90
        0
176
     1
 90
        0
176
     1
 40
0.6
176
     1
 40
30.0
176
     1
 62
     7
420
 16777215
176
     1
 90
        1
176
     1
 90
        4
176
     1
 62
     7
176
     1
 62
   257
176
     1
 90
        1
176
     1
 90
        1
176
     1
 40
1.0
176
     1
 90
        8
176
     1
 62
     7
176
     1
 40
1.0
176
     1
 90
        1
176
     1
 90
        6
176
     1
 90
        2
176
     1
 62
     7
176
     1
 90
        5
176
     1
 90
        0
176
     1
 90
        0
176
     1
290
     0
176
     1
 90
        1
176
     1
 40
0.0
176
     1
 90
        0
176
     1
290
     0
176
     1
290
     1
176
     1
290
     1
176
     1
290
     0
176
     1
290
     0
176
     1
290
     0
176
     1
290
     0
176
     1
290
     0
176
     1
290
     0
176
     1
 90
       50
176
     1
 40
0.0
176
     1
 40
1.0
176
     1
 90
        0
176
     1
 62
   178
420
        0
176
     1
 90
       50
176
     1
 90
        3
176
     1
 62
     5
420
      255
176
     1
290
     0
176
     1
 90
       50
176
     1
 90
       50
176
     1
 90
       50
176
     1
290
     0
176
     1
 90
       50
176
     1
 62
   256
176
     0
 40
1.0
176
     0
 90
        2
176
     1
  1
strokes_ogs.tif
176
     1
290
     0
176
     1
 40
1.0
176
     1
 40
1.0
176
     1
  0
VISUALSTYLE
  5
18EE
102
{ACAD_REACTORS
330
18ED
102
}
330
18ED
100
AcDbVisualStyle
  2
Flat
 70
     0
177
     3
291
     1
 70
    58
 90
        2
176
     1
 90
        1
176
     1
 90
        1
176
     1
 90
        2
176
     1
 40
0.6
176
     1
 40
30.0
176
     1
 62
     7
420
 16777215
176
     1
 90
        0
176
     1
 90
        0
176
     1
 62
     7
176
     1
 62
   257
176
     1
 90
        1
176
     1
 90
        1
176
     1
 40
1.0
176
     1
 90
        8
176
     1
 62
     7
176
     1
 40
1.0
176
     1
 90
        1
176
     1
 90
        6
176
     1
 90
        2
176
     1
 62
     7
176
     1
 90
        5
176
     1
 90
        0
176
     1
 90
        0
176
     1
290
     0
176
     1
 90
       13
176
     1
 40
0.0
176
     1
 90
        0
176
     1
290
     0
176
     1
290
     1
176
     1
290
     1
176
     1
290
     0
176
     1
290
     0
176
     1
290
     0
176
     1
290
     0
176
     1
290
     0
176
     1
290
     0
176
     1
 90
       50
176
     1
 40
0.0
176
     1
 40
1.0
176
     1
 90
        0
176
     1
 62
   178
420
        0
176
     1
 90
       50
176
     1
 90
        3
176
     1
 62
     5
420
      255
176
     1
290
     0
176
     1
 90
       50
176
     1
 90
       50
176
     1
 90
       50
176
     1
290
     0
176
     1
 90
       50
176
     1
 62
   256
176
     0
 40
1.0
176
     0
 90
        2
176
     1
  1
strokes_ogs.tif
176
     1
290
     0
176
     1
 40
1.0
176
     1
 40
1.0
176
     1
  0
VISUALSTYLE
  5
18EF
102
{ACAD_REACTORS
330
18ED
102
}
330
18ED
100
AcDbVisualStyle
  2
FlatWithEdges
 70
     1
177
     3
291
     1
 70
    58
 90
        2
176
     1
 90
        1
176
     1
 90
        1
176
     1
 90
        2
176
     1
 40
0.6
176
     1
 40
30.0
176
     1
 62
     7
420
 16777215
176
     1
 90
        1
176
     1
 90
        0
176
     1
 62
     7
176
     1
 62
   257
176
     1
 90
        1
176
     1
 90
        1
176
     1
 40
1.0
176
     1
 90
        0
176
     1
 62
   257
176
     1
 40
1.0
176
     1
 90
        1
176
     1
 90
        6
176
     1
 90
        2
176
     1
 62
     7
176
     1
 90
        5
176
     1
 90
        0
176
     1
 90
        0
176
     1
290
     0
176
     1
 90
       13
176
     1
 40
0.0
176
     1
 90
        0
176
     1
290
     0
176
     1
290
     1
176
     1
290
     1
176
     1
290
     0
176
     1
290
     0
176
     1
290
     0
176
     1
290
     0
176
     1
290
     0
176
     1
290
     0
176
     1
 90
       50
176
     1
 40
0.0
176
     1
 40
1.0
176
     1
 90
        0
176
     1
 62
   178
420
        0
176
     1
 90
       50
176
     1
 90
        3
176
     1
 62
     5
420
      255
176
     1
290
     0
176
     1
 90
       50
176
     1
 90
       50
176
     1
 90
       50
176
     1
290
     0
176
     1
 90
       50
176
     1
 62
   256
176
     0
 40
1.0
176
     0
 90
        2
176
     1
  1
strokes_ogs.tif
176
     1
290
     0
176
     1
 40
1.0
176
     1
 40
1.0
176
     1
  0
VISUALSTYLE
  5
18F0
102
{ACAD_REACTORS
330
18ED
102
}
330
18ED
100
AcDbVisualStyle
  2
Gouraud
 70
     2
177
     3
291
     1
 70
    58
 90
        2
176
     1
 90
        2
176
     1
 90
        1
176
     1
 90
        2
176
     1
 40
0.6
176
     1
 40
30.0
176
     1
 62
     7
420
 16777215
176
     1
 90
        0
176
     1
 90
        0
176
     1
 62
     7
176
     1
 62
   257
176
     1
 90
        1
176
     1
 90
        1
176
     1
 40
1.0
176
     1
 90
        0
176
     1
 62
     7
176
     1
 40
1.0
176
     1
 90
        1
176
     1
 90
        6
176
     1
 90
        2
176
     1
 62
     7
176
     1
 90
        5
176
     1
 90
        0
176
     1
 90
        0
176
     1
290
     0
176
     1
 90
       13
176
     1
 40
0.0
176
     1
 90
        0
176
     1
290
     0
176
     1
290
     1
176
     1
290
     1
176
     1
290
     0
176
     1
290
     0
176
     1
290
     0
176
     1
290
     0
176
     1
290
     0
176
     1
290
     0
176
     1
 90
       50
176
     1
 40
0.0
176
     1
 40
1.0
176
     1
 90
        0
176
     1
 62
   178
420
        0
176
     1
 90
       50
176
     1
 90
        3
176
     1
 62
     5
420
      255
176
     1
290
     0
176
     1
 90
       50
176
     1
 90
       50
176
     1
 90
       50
176
     1
290
     0
176
     1
 90
       50
176
     1
 62
   256
176
     0
 40
1.0
176
     0
 90
        2
176
     1
  1
strokes_ogs.tif
176
     1
290
     0
176
     1
 40
1.0
176
     1
 40
1.0
176
     1
  0
VISUALSTYLE
  5
18F1
102
{ACAD_REACTORS
330
18ED
102
}
330
18ED
100
AcDbVisualStyle
  2
GouraudWithEdges
 70
     3
177
     3
291
     1
 70
    58
 90
        2
176
     1
 90
        2
176
     1
 90
        1
176
     1
 90
        2
176
     1
 40
0.6
176
     1
 40
30.0
176
     1
 62
     7
420
 16777215
176
     1
 90
        1
176
     1
 90
        0
176
     1
 62
     7
176
     1
 62
   257
176
     1
 90
        1
176
     1
 90
        1
176
     1
 40
1.0
176
     1
 90
        0
176
     1
 62
   257
176
     1
 40
1.0
176
     1
 90
        1
176
     1
 90
        6
176
     1
 90
        2
176
     1
 62
     7
176
     1
 90
        5
176
     1
 90
        0
176
     1
 90
        0
176
     1
290
     0
176
     1
 90
       13
176
     1
 40
0.0
176
     1
 90
        0
176
     1
290
     0
176
     1
290
     1
176
     1
290
     1
176
     1
290
     0
176
     1
290
     0
176
     1
290
     0
176
     1
290
     0
176
     1
290
     0
176
     1
290
     0
176
     1
 90
       50
176
     1
 40
0.0
176
     1
 40
1.0
176
     1
 90
        0
176
     1
 62
   178
420
        0
176
     1
 90
       50
176
     1
 90
        3
176
     1
 62
     5
420
      255
176
     1
290
     0
176
     1
 90
       50
176
     1
 90
       50
176
     1
 90
       50
176
     1
290
     0
176
     1
 90
       50
176
     1
 62
   256
176
     0
 40
1.0
176
     0
 90
        2
176
     1
  1
strokes_ogs.tif
176
     1
290
     0
176
     1
 40
1.0
176
     1
 40
1.0
176
     1
  0
VISUALSTYLE
  5
18F4
102
{ACAD_REACTORS
330
18ED
102
}
330
18ED
100
AcDbVisualStyle
  2
Hidden
 70
     6
177
     3
291
     0
 70
    58
 90
        1
176
     1
 90
        2
176
     1
 90
        2
176
     1
 90
        0
176
     1
 40
0.6
176
     1
 40
30.0
176
     1
 62
     7
420
 16777215
176
     1
 90
        2
176
     1
 90
        2
176
     1
 62
     7
176
     1
 62
   257
176
     1
 90
        2
176
     1
 90
        1
176
     1
 40
40.0
176
     1
 90
        0
176
     1
 62
   257
176
     1
 40
1.0
176
     1
 90
        1
176
     1
 90
        6
176
     1
 90
        2
176
     1
 62
     7
176
     1
 90
        3
176
     1
 90
        0
176
     1
 90
        0
176
     1
290
     0
176
     1
 90
        1
176
     1
 40
0.0
176
     1
 90
        0
176
     1
290
     0
176
     1
290
     1
176
     1
290
     1
176
     1
290
     0
176
     1
290
     0
176
     1
290
     0
176
     1
290
     0
176
     1
290
     0
176
     1
290
     0
176
     1
 90
       50
176
     1
 40
0.0
176
     1
 40
1.0
176
     1
 90
        0
176
     1
 62
   178
420
        0
176
     1
 90
       50
176
     1
 90
        3
176
     1
 62
     5
420
      255
176
     1
290
     0
176
     1
 90
       50
176
     1
 90
       50
176
     1
 90
       50
176
     1
290
     0
176
     1
 90
       50
176
     1
 62
   256
176
     0
 40
1.0
176
     0
 90
        2
176
     1
  1
strokes_ogs.tif
176
     1
290
     0
176
     1
 40
1.0
176
     1
 40
1.0
176
     1
  0
VISUALSTYLE
  5
18FE
102
{ACAD_REACTORS
330
18ED
102
}
330
18ED
100
AcDbVisualStyle
  2
JitterOff
 70
    20
177
     3
291
     1
 70
    58
 90
        2
176
     0
 90
        2
176
     0
 90
        0
176
     0
 90
        0
176
     0
 40
0.6
176
     0
 40
30.0
176
     0
 62
     7
420
 16777215
176
     0
 90
        1
176
     0
 90
        4
176
     0
 62
     7
176
     0
 62
   257
176
     0
 90
        1
176
     0
 90
        1
176
     0
 40
1.0
176
     0
 90
       10
176
     2
 62
     7
176
     0
 40
1.0
176
     0
 90
        1
176
     0
 90
        6
176
     0
 90
        2
176
     0
 62
     7
176
     0
 90
        5
176
     0
 90
        0
176
     0
 90
        0
176
     0
290
     0
176
     0
 90
        1
176
     0
 40
0.0
176
     0
 90
        0
176
     0
290
     0
176
     0
290
     1
176
     0
290
     1
176
     0
290
     0
176
     0
290
     0
176
     0
290
     0
176
     0
290
     0
176
     0
290
     0
176
     0
290
     0
176
     0
 90
       50
176
     0
 40
0.0
176
     0
 40
1.0
176
     0
 90
        0
176
     0
 62
   178
420
        0
176
     0
 90
       50
176
     0
 90
        3
176
     0
 62
     5
420
      255
176
     0
290
     0
176
     0
 90
       50
176
     0
 90
       50
176
     0
 90
       50
176
     0
290
     0
176
     0
 90
       50
176
     0
 62
   256
176
     0
 40
1.0
176
     0
 90
        2
176
     0
  1
strokes_ogs.tif
176
     0
290
     0
176
     0
 40
1.0
176
     0
 40
1.0
176
     0
  0
VISUALSTYLE
  5
18FB
102
{ACAD_REACTORS
330
18ED
102
}
330
18ED
100
AcDbVisualStyle
  2
Linepattern
 70
    14
177
     3
291
     1
 70
    58
 90
        2
176
     1
 90
        2
176
     1
 90
        0
176
     1
 90
        0
176
     1
 40
0.6
176
     1
 40
30.0
176
     1
 62
     7
420
 16777215
176
     1
 90
        1
176
     1
 90
        4
176
     1
 62
     7
176
     1
 62
   257
176
     1
 90
        7
176
     1
 90
        7
176
     1
 40
1.0
176
     1
 90
        8
176
     1
 62
     7
176
     1
 40
1.0
176
     1
 90
        1
176
     1
 90
        6
176
     1
 90
        2
176
     1
 62
     7
176
     1
 90
        5
176
     1
 90
        0
176
     1
 90
        0
176
     1
290
     0
176
     1
 90
        1
176
     1
 40
0.0
176
     1
 90
        0
176
     1
290
     0
176
     1
290
     1
176
     1
290
     1
176
     1
290
     0
176
     1
290
     0
176
     1
290
     0
176
     1
290
     0
176
     1
290
     0
176
     1
290
     0
176
     1
 90
       50
176
     1
 40
0.0
176
     1
 40
1.0
176
     1
 90
        0
176
     1
 62
   178
420
        0
176
     1
 90
       50
176
     1
 90
        3
176
     1
 62
     5
420
      255
176
     1
290
     0
176
     1
 90
       50
176
     1
 90
       50
176
     1
 90
       50
176
     1
290
     0
176
     1
 90
       50
176
     1
 62
   256
176
     0
 40
1.0
176
     0
 90
        2
176
     1
  1
strokes_ogs.tif
176
     1
290
     0
176
     1
 40
1.0
176
     1
 40
1.0
176
     1
  0
VISUALSTYLE
  5
18FF
102
{ACAD_REACTORS
330
18ED
102
}
330
18ED
100
AcDbVisualStyle
  2
OverhangOff
 70
    21
177
     3
291
     1
 70
    58
 90
        2
176
     0
 90
        2
176
     0
 90
        0
176
     0
 90
        0
176
     0
 40
0.6
176
     0
 40
30.0
176
     0
 62
     7
420
 16777215
176
     0
 90
        1
176
     0
 90
        4
176
     0
 62
     7
176
     0
 62
   257
176
     0
 90
        1
176
     0
 90
        1
176
     0
 40
1.0
176
     0
 90
        9
176
     2
 62
     7
176
     0
 40
1.0
176
     0
 90
        1
176
     0
 90
        6
176
     0
 90
        2
176
     0
 62
     7
176
     0
 90
        5
176
     0
 90
        0
176
     0
 90
        0
176
     0
290
     0
176
     0
 90
        1
176
     0
 40
0.0
176
     0
 90
        0
176
     0
290
     0
176
     0
290
     1
176
     0
290
     1
176
     0
290
     0
176
     0
290
     0
176
     0
290
     0
176
     0
290
     0
176
     0
290
     0
176
     0
290
     0
176
     0
 90
       50
176
     0
 40
0.0
176
     0
 40
1.0
176
     0
 90
        0
176
     0
 62
   178
420
        0
176
     0
 90
       50
176
     0
 90
        3
176
     0
 62
     5
420
      255
176
     0
290
     0
176
     0
 90
       50
176
     0
 90
       50
176
     0
 90
       50
176
     0
290
     0
176
     0
 90
       50
176
     0
 62
   256
176
     0
 40
1.0
176
     0
 90
        2
176
     0
  1
strokes_ogs.tif
176
     0
290
     0
176
     0
 40
1.0
176
     0
 40
1.0
176
     0
  0
VISUALSTYLE
  5
18F6
102
{ACAD_REACTORS
330
18ED
102
}
330
18ED
100
AcDbVisualStyle
  2
Realistic
 70
     8
177
     3
291
     0
 70
    58
 90
        2
176
     1
 90
        3
176
     1
 90
        0
176
     1
 90
        2
176
     1
 40
0.6
176
     1
 40
30.0
176
     1
 62
     7
420
 16777215
176
     1
 90
        0
176
     1
 90
        0
176
     1
 62
     7
176
     1
 62
   257
176
     1
 90
        1
176
     1
 90
        1
176
     1
 40
1.0
176
     1
 90
        8
176
     1
 62
   257
176
     1
 40
1.0
176
     1
 90
        1
176
     1
 90
        6
176
     1
 90
        2
176
     1
 62
     7
176
     1
 90
        3
176
     1
 90
        0
176
     1
 90
        0
176
     1
290
     0
176
     1
 90
       13
176
     1
 40
0.0
176
     1
 90
        0
176
     1
290
     0
176
     1
290
     1
176
     1
290
     1
176
     1
290
     0
176
     1
290
     0
176
     1
290
     0
176
     1
290
     0
176
     1
290
     0
176
     1
290
     0
176
     1
 90
       50
176
     1
 40
0.0
176
     1
 40
1.0
176
     1
 90
        0
176
     1
 62
   178
420
        0
176
     1
 90
       50
176
     1
 90
        3
176
     1
 62
     5
420
      255
176
     1
290
     0
176
     1
 90
       50
176
     1
 90
       50
176
     1
 90
       50
176
     1
290
     0
176
     1
 90
       50
176
     1
 62
   256
176
     0
 40
1.0
176
     0
 90
        2
176
     1
  1
strokes_ogs.tif
176
     1
290
     0
176
     1
 40
1.0
176
     1
 40
1.0
176
     1
  0
VISUALSTYLE
  5
1905
102
{ACAD_REACTORS
330
18ED
102
}
330
18ED
100
AcDbVisualStyle
  2
Shaded
 70
    27
177
     3
291
     0
 70
    58
 90
        2
176
     1
 90
        2
176
     1
 90
        1
176
     1
 90
        2
176
     1
 40
0.6
176
     1
 40
30.0
176
     1
 62
     7
420
 16777215
176
     1
 90
        0
176
     1
 90
        4
176
     1
 62
     7
176
     1
 62
   257
176
     1
 90
        1
176
     1
 90
        1
176
     1
 40
1.0
176
     1
 90
        8
176
     1
 62
   257
176
     1
 40
1.0
176
     1
 90
        1
176
     1
 90
        6
176
     1
 90
        2
176
     1
 62
     8
420
  7895160
176
     1
 90
        3
176
     1
 90
        0
176
     1
 90
        0
176
     1
290
     0
176
     1
 90
        5
176
     1
 40
0.0
176
     1
 90
        0
176
     1
290
     0
176
     1
290
     1
176
     1
290
     1
176
     1
290
     0
176
     1
290
     0
176
     1
290
     0
176
     1
290
     0
176
     1
290
     0
176
     1
290
     0
176
     1
 90
       50
176
     1
 40
0.0
176
     1
 40
1.0
176
     1
 90
        0
176
     1
 62
   178
420
        0
176
     1
 90
       50
176
     1
 90
        3
176
     1
 62
     5
420
      255
176
     1
290
     0
176
     1
 90
       50
176
     1
 90
       50
176
     1
 90
       50
176
     1
290
     0
176
     1
 90
       50
176
     1
 62
   256
176
     0
 40
1.0
176
     0
 90
        2
176
     1
  1
strokes_ogs.tif
176
     1
290
     0
176
     1
 40
1.0
176
     1
 40
1.0
176
     1
  0
VISUALSTYLE
  5
1904
102
{ACAD_REACTORS
330
18ED
102
}
330
18ED
100
AcDbVisualStyle
  2
Shaded with edges
 70
    26
177
     3
291
     0
 70
    58
 90
        2
176
     1
 90
        2
176
     1
 90
        1
176
     1
 90
        2
176
     1
 40
0.6
176
     1
 40
30.0
176
     1
 62
     7
420
 16777215
176
     1
 90
        1
176
     1
 90
       10
176
     1
 62
     7
176
     1
 62
   257
176
     1
 90
        2
176
     1
 90
        1
176
     1
 40
1.0
176
     1
 90
        8
176
     1
 62
   257
176
     1
 40
1.0
176
     1
 90
        1
176
     1
 90
        6
176
     1
 90
        2
176
     1
 62
     7
176
     1
 90
        3
176
     1
 90
        0
176
     1
 90
        0
176
     1
290
     0
176
     1
 90
        5
176
     1
 40
0.0
176
     1
 90
        0
176
     1
290
     0
176
     1
290
     1
176
     1
290
     1
176
     1
290
     0
176
     1
290
     0
176
     1
290
     0
176
     1
290
     0
176
     1
290
     0
176
     1
290
     0
176
     1
 90
       50
176
     1
 40
0.0
176
     1
 40
1.0
176
     1
 90
        0
176
     1
 62
   178
420
        0
176
     1
 90
       50
176
     1
 90
        3
176
     1
 62
     5
420
      255
176
     1
290
     0
176
     1
 90
       50
176
     1
 90
       50
176
     1
 90
       50
176
     1
290
     0
176
     1
 90
       50
176
     1
 62
   256
176
     0
 40
1.0
176
     0
 90
        2
176
     1
  1
strokes_ogs.tif
176
     1
290
     0
176
     1
 40
1.0
176
     1
 40
1.0
176
     1
  0
VISUALSTYLE
  5
1901
102
{ACAD_REACTORS
330
18ED
102
}
330
18ED
100
AcDbVisualStyle
  2
Shades of Gray
 70
    23
177
     3
291
     0
 70
    58
 90
        2
176
     1
 90
        2
176
     1
 90
        3
176
     1
 90
        0
176
     1
 40
0.6
176
     1
 40
30.0
176
     1
 62
     7
420
 16777215
176
     1
 90
        2
176
     1
 90
        2
176
     1
 62
     7
176
     1
 62
     7
176
     1
 90
        1
176
     1
 90
        1
176
     1
 40
40.0
176
     1
 90
        8
176
     1
 62
     7
176
     1
 40
1.0
176
     1
 90
        1
176
     1
 90
        6
176
     1
 90
        2
176
     1
 62
     7
176
     1
 90
        3
176
     1
 90
        0
176
     1
 90
        0
176
     1
290
     0
176
     1
 90
        1
176
     1
 40
0.0
176
     1
 90
        0
176
     1
290
     0
176
     1
290
     1
176
     1
290
     1
176
     1
290
     0
176
     1
290
     0
176
     1
290
     0
176
     1
290
     0
176
     1
290
     0
176
     1
290
     0
176
     1
 90
       50
176
     1
 40
0.0
176
     1
 40
1.0
176
     1
 90
        0
176
     1
 62
   178
420
        0
176
     1
 90
       50
176
     1
 90
        3
176
     1
 62
     5
420
      255
176
     1
290
     0
176
     1
 90
       50
176
     1
 90
       50
176
     1
 90
       50
176
     1
290
     0
176
     1
 90
       50
176
     1
 62
   256
176
     0
 40
1.0
176
     0
 90
        2
176
     1
  1
strokes_ogs.tif
176
     1
290
     0
176
     1
 40
1.0
176
     1
 40
1.0
176
     1
  0
VISUALSTYLE
  5
1902
102
{ACAD_REACTORS
330
18ED
102
}
330
18ED
100
AcDbVisualStyle
  2
Sketchy
 70
    24
177
     3
291
     0
 70
    58
 90
        1
176
     1
 90
        2
176
     1
 90
        2
176
     1
 90
        0
176
     1
 40
0.6
176
     1
 40
30.0
176
     1
 62
     7
420
 16777215
176
     1
 90
        2
176
     1
 90
        2
176
     1
 62
     7
176
     1
 62
     7
176
     1
 90
        1
176
     1
 90
        1
176
     1
 40
40.0
176
     1
 90
       11
176
     1
 62
     7
176
     1
 40
1.0
176
     1
 90
        1
176
     1
 90
        6
176
     1
 90
        2
176
     1
 62
     7
176
     1
 90
        6
176
     1
 90
        0
176
     1
 90
        0
176
     1
290
     0
176
     1
 90
        1
176
     1
 40
0.0
176
     1
 90
        0
176
     1
290
     0
176
     1
290
     1
176
     1
290
     1
176
     1
290
     0
176
     1
290
     0
176
     1
290
     0
176
     1
290
     0
176
     1
290
     0
176
     1
290
     0
176
     1
 90
       50
176
     1
 40
0.0
176
     1
 40
1.0
176
     1
 90
        0
176
     1
 62
   178
420
        0
176
     1
 90
       50
176
     1
 90
        3
176
     1
 62
     5
420
      255
176
     1
290
     0
176
     1
 90
       50
176
     1
 90
       50
176
     1
 90
       50
176
     1
290
     0
176
     1
 90
       50
176
     1
 62
   256
176
     0
 40
1.0
176
     0
 90
        2
176
     1
  1
strokes_ogs.tif
176
     1
290
     0
176
     1
 40
1.0
176
     1
 40
1.0
176
     1
  0
VISUALSTYLE
  5
18FA
102
{ACAD_REACTORS
330
18ED
102
}
330
18ED
100
AcDbVisualStyle
  2
Thicken
 70
    13
177
     3
291
     1
 70
    58
 90
        2
176
     1
 90
        2
176
     1
 90
        0
176
     1
 90
        0
176
     1
 40
0.6
176
     1
 40
30.0
176
     1
 62
     7
420
 16777215
176
     1
 90
        1
176
     1
 90
        4
176
     1
 62
     7
176
     1
 62
   257
176
     1
 90
        1
176
     1
 90
        1
176
     1
 40
1.0
176
     1
 90
       12
176
     1
 62
     7
176
     1
 40
1.0
176
     1
 90
        1
176
     1
 90
        6
176
     1
 90
        2
176
     1
 62
     7
176
     1
 90
        5
176
     1
 90
        0
176
     1
 90
        0
176
     1
290
     0
176
     1
 90
        1
176
     1
 40
0.0
176
     1
 90
        0
176
     1
290
     0
176
     1
290
     1
176
     1
290
     1
176
     1
290
     0
176
     1
290
     0
176
     1
290
     0
176
     1
290
     0
176
     1
290
     0
176
     1
290
     0
176
     1
 90
       50
176
     1
 40
0.0
176
     1
 40
1.0
176
     1
 90
        0
176
     1
 62
   178
420
        0
176
     1
 90
       50
176
     1
 90
        3
176
     1
 62
     5
420
      255
176
     1
290
     0
176
     1
 90
       50
176
     1
 90
       50
176
     1
 90
       50
176
     1
290
     0
176
     1
 90
       50
176
     1
 62
   256
176
     0
 40
1.0
176
     0
 90
        2
176
     1
  1
strokes_ogs.tif
176
     1
290
     0
176
     1
 40
1.0
176
     1
 40
1.0
176
     1
  0
VISUALSTYLE
  5
18F3
102
{ACAD_REACTORS
330
18ED
102
}
330
18ED
100
AcDbVisualStyle
  2
Wireframe
 70
     5
177
     3
291
     0
 70
    58
 90
        0
176
     1
 90
        2
176
     1
 90
        0
176
     1
 90
        0
176
     1
 40
0.6
176
     1
 40
30.0
176
     1
 62
     7
420
 16777215
176
     1
 90
        1
176
     1
 90
        4
176
     1
 62
     7
176
     1
 62
   257
176
     1
 90
        1
176
     1
 90
        1
176
     1
 40
1.0
176
     1
 90
        0
176
     1
 62
   257
176
     1
 40
1.0
176
     1
 90
        1
176
     1
 90
        6
176
     1
 90
        2
176
     1
 62
     7
176
     1
 90
        3
176
     1
 90
        0
176
     1
 90
        0
176
     1
290
     0
176
     1
 90
        1
176
     1
 40
0.0
176
     1
 90
        0
176
     1
290
     0
176
     1
290
     1
176
     1
290
     1
176
     1
290
     0
176
     1
290
     0
176
     1
290
     0
176
     1
290
     0
176
     1
290
     0
176
     1
290
     0
176
     1
 90
       50
176
     1
 40
0.0
176
     1
 40
1.0
176
     1
 90
        0
176
     1
 62
   178
420
        0
176
     1
 90
       50
176
     1
 90
        3
176
     1
 62
     5
420
      255
176
     1
290
     0
176
     1
 90
       50
176
     1
 90
       50
176
     1
 90
       50
176
     1
290
     0
176
     1
 90
       50
176
     1
 62
   256
176
     0
 40
1.0
176
     0
 90
        2
176
     1
  1
strokes_ogs.tif
176
     1
290
     0
176
     1
 40
1.0
176
     1
 40
1.0
176
     1
  0
VISUALSTYLE
  5
1903
102
{ACAD_REACTORS
330
18ED
102
}
330
18ED
100
AcDbVisualStyle
  2
X-Ray
 70
    25
177
     3
291
     0
 70
    58
 90
        2
176
     1
 90
        2
176
     1
 90
        1
176
     1
 90
        1
176
     1
 40
0.5
176
     1
 40
30.0
176
     1
 62
     7
420
 16777215
176
     1
 90
        1
176
     1
 90
        0
176
     1
 62
     7
176
     1
 62
   257
176
     1
 90
        1
176
     1
 90
        1
176
     1
 40
1.0
176
     1
 90
        8
176
     1
 62
     7
176
     1
 40
1.0
176
     1
 90
        1
176
     1
 90
        6
176
     1
 90
        2
176
     1
 62
     7
176
     1
 90
        3
176
     1
 90
        0
176
     1
 90
        0
176
     1
290
     0
176
     1
 90
       13
176
     1
 40
0.0
176
     1
 90
        0
176
     1
290
     0
176
     1
290
     1
176
     1
290
     1
176
     1
290
     0
176
     1
290
     0
176
     1
290
     0
176
     1
290
     0
176
     1
290
     0
176
     1
290
     0
176
     1
 90
       50
176
     1
 40
0.0
176
     1
 40
1.0
176
     1
 90
        0
176
     1
 62
   178
420
        0
176
     1
 90
       50
176
     1
 90
        3
176
     1
 62
     5
420
      255
176
     1
290
     0
176
     1
 90
       50
176
     1
 90
       50
176
     1
 90
       50
176
     1
290
     0
176
     1
 90
       50
176
     1
 62
   256
176
     0
 40
1.0
176
     0
 90
        2
176
     1
  1
strokes_ogs.tif
176
     1
290
     0
176
     1
 40
1.0
176
     1
 40
1.0
176
     1
  0
DICTIONARYVAR
  5
1B83
102
{ACAD_REACTORS
330
1B82
102
}
330
1B82
100
DictionaryVariables
280
     0
  1
1:1
  0
DICTIONARYVAR
  5
1B88
102
{ACAD_REACTORS
330
1B82
102
}
330
1B82
100
DictionaryVariables
280
     0
  1
Standard
  0
DICTIONARYVAR
  5
1B87
102
{ACAD_REACTORS
330
1B82
102
}
330
1B82
100
DictionaryVariables
280
     0
  1
Standard
  0
XRECORD
  5
1934
102
{ACAD_REACTORS
330
1932
102
}
330
1932
100
AcDbXrecord
280
     1
1000
#ffffff
  0
XRECORD
  5
1935
102
{ACAD_REACTORS
330
1932
102
}
330
1932
100
AcDbXrecord
280
     1
1000
FullColor
  0
XRECORD
  5
1936
102
{ACAD_REACTORS
330
1932
102
}
330
1932
100
AcDbXrecord
280
     1
290
     1
  0
XRECORD
  5
1937
102
{ACAD_REACTORS
330
1932
102
}
330
1932
100
AcDbXrecord
280
     1
290
     1
  0
XRECORD
  5
1938
102
{ACAD_REACTORS
330
1932
102
}
330
1932
100
AcDbXrecord
280
     1
290
     1
  0
XRECORD
  5
1939
102
{ACAD_REACTORS
330
1932
102
}
330
1932
100
AcDbXrecord
280
     1
290
     1
  0
XRECORD
  5
193A
102
{ACAD_REACTORS
330
1932
102
}
330
1932
100
AcDbXrecord
280
     1
1000
auto
  0
XRECORD
  5
193B
102
{ACAD_REACTORS
330
1932
102
}
330
1932
100
AcDbXrecord
280
     1
1000
auto
  0
XRECORD
  5
193C
102
{ACAD_REACTORS
330
1932
102
}
330
1932
100
AcDbXrecord
280
     1
1000
auto
  0
XRECORD
  5
193D
102
{ACAD_REACTORS
330
1932
102
}
330
1932
100
AcDbXrecord
280
     1
1000
auto
  0
XRECORD
  5
193E
102
{ACAD_REACTORS
330
1932
102
}
330
1932
100
AcDbXrecord
280
     1
1000
auto
  0
XRECORD
  5
193F
102
{ACAD_REACTORS
330
1932
102
}
330
1932
100
AcDbXrecord
280
     1
1000
auto
  0
XRECORD
  5
1940
102
{ACAD_REACTORS
330
1932
102
}
330
1932
100
AcDbXrecord
280
     1
1000
auto
  0
XRECORD
  5
1941
102
{ACAD_REACTORS
330
1932
102
}
330
1932
100
AcDbXrecord
280
     1
1000
auto
  0
XRECORD
  5
1942
102
{ACAD_REACTORS
330
1932
102
}
330
1932
100
AcDbXrecord
280
     1
290
     0
  0
XRECORD
  5
1943
102
{ACAD_REACTORS
330
1932
102
}
330
1932
100
AcDbXrecord
280
     1
290
     0
  0
XRECORD
  5
1944
102
{ACAD_REACTORS
330
1932
102
}
330
1932
100
AcDbXrecord
280
     1
290
     0
  0
XRECORD
  5
1945
102
{ACAD_REACTORS
330
1932
102
}
330
1932
100
AcDbXrecord
280
     1
290
     0
  0
XRECORD
  5
1946
102
{ACAD_REACTORS
330
1932
102
}
330
1932
100
AcDbXrecord
280
     1
 90
        0
  0
XRECORD
  5
1947
102
{ACAD_REACTORS
330
1932
102
}
330
1932
100
AcDbXrecord
280
     1
 90
        0
  0
XRECORD
  5
1948
102
{ACAD_REACTORS
330
1932
102
}
330
1932
100
AcDbXrecord
280
     1
 90
        0
  0
XRECORD
  5
1949
102
{ACAD_REACTORS
330
1932
102
}
330
1932
100
AcDbXrecord
280
     1
 90
        0
  0
XRECORD
  5
194A
102
{ACAD_REACTORS
330
1932
102
}
330
1932
100
AcDbXrecord
280
     1
1000
auto
  0
XRECORD
  5
194B
102
{ACAD_REACTORS
330
1932
102
}
330
1932
100
AcDbXrecord
280
     1
1000
auto
  0
XRECORD
  5
194C
102
{ACAD_REACTORS
330
1932
102
}
330
1932
100
AcDbXrecord
280
     1
1000
auto
  0
XRECORD
  5
194D
102
{ACAD_REACTORS
330
1932
102
}
330
1932
100
AcDbXrecord
280
     1
1000
auto
  0
XRECORD
  5
194E
102
{ACAD_REACTORS
330
1932
102
}
330
1932
100
AcDbXrecord
280
     1
1000
auto
  0
XRECORD
  5
194F
102
{ACAD_REACTORS
330
1932
102
}
330
1932
100
AcDbXrecord
280
     1
1000
auto
  0
XRECORD
  5
1950
102
{ACAD_REACTORS
330
1932
102
}
330
1932
100
AcDbXrecord
280
     1
1000
auto
  0
XRECORD
  5
1951
102
{ACAD_REACTORS
330
1932
102
}
330
1932
100
AcDbXrecord
280
     1
1000
auto
  0
XRECORD
  5
1952
102
{ACAD_REACTORS
330
1932
102
}
330
1932
100
AcDbXrecord
280
     1
 90
        1
  0
XRECORD
  5
1953
102
{ACAD_REACTORS
330
1932
102
}
330
1932
100
AcDbXrecord
280
     1
 40
10.0
  0
XRECORD
  5
1954
102
{ACAD_REACTORS
330
1932
102
}
330
1932
100
AcDbXrecord
280
     1
 40
10.0
  0
XRECORD
  5
1955
102
{ACAD_REACTORS
330
1932
102
}
330
1932
100
AcDbXrecord
280
     1
 40
10.0
  0
XRECORD
  5
1956
102
{ACAD_REACTORS
330
1932
102
}
330
1932
100
AcDbXrecord
280
     1
 40
10.0
  0
XRECORD
  5
1957
102
{ACAD_REACTORS
330
1932
102
}
330
1932
100
AcDbXrecord
280
     1
290
     0
  0
XRECORD
  5
1958
102
{ACAD_REACTORS
330
1932
102
}
330
1932
100
AcDbXrecord
280
     1
 90
        1
  0
XRECORD
  5
1959
102
{ACAD_REACTORS
330
1932
102
}
330
1932
100
AcDbXrecord
280
     1
 40
0.0
  0
XRECORD
  5
195A
102
{ACAD_REACTORS
330
1932
102
}
330
1932
100
AcDbXrecord
280
     1
 40
0.0
  0
XRECORD
  5
195B
102
{ACAD_REACTORS
330
1932
102
}
330
1932
100
AcDbXrecord
280
     1
1000
Portrait
  0
XRECORD
  5
195C
102
{ACAD_REACTORS
330
1932
102
}
330
1932
100
AcDbXrecord
280
     1
 40
297.0
  0
XRECORD
  5
195D
102
{ACAD_REACTORS
330
1932
102
}
330
1932
100
AcDbXrecord
280
     1
 40
210.0
  0
XRECORD
  5
195E
102
{ACAD_REACTORS
330
1932
102
}
330
1932
100
AcDbXrecord
280
     1
1000
1:1
  0
XRECORD
  5
195F
102
{ACAD_REACTORS
330
1932
102
}
330
1932
100
AcDbXrecord
280
     1
290
     1
  0
XRECORD
  5
1960
102
{ACAD_REACTORS
330
1932
102
}
330
1932
100
AcDbXrecord
280
     1
1000
3.9.1
  0
XRECORD
  5
1961
102
{ACAD_REACTORS
330
1932
102
}
330
1932
100
AcDbXrecord
280
     1
 90
        4
  0
DICTIONARY
  5
1B84
330
192D
100
AcDbDictionary
280
     1
281
     1
  3
ACAD_ROUNDTRIP_2008_TABLESTYLE_CELLSTYLEMAP
360
1B85
  0
CELLSTYLEMAP
  5
1B85
102
{ACAD_REACTORS
330
1B84
102
}
330
1B84
100
AcDbCellStyleMap
 90
        3
300
CELLSTYLE
  1
TABLEFORMAT_BEGIN
 90
        5
170
     1
 91
        0
 92
    32768
 62
   257
 93
        1
300
CONTENTFORMAT
  1
CONTENTFORMAT_BEGIN
 90
        0
 91
        0
 92
        4
 93
        0
300

 40
0.0
140
1.0
 94
        5
 62
     0
340
18D5
144
0.25
309
CONTENTFORMAT_END
171
     1
301
MARGIN
  1
CELLMARGIN_BEGIN
 40
0.06
 40
0.06
 40
0.06
 40
0.06
 40
0.06
 40
0.06
309
CELLMARGIN_END
 94
        6
 95
        1
302
GRIDFORMAT
  1
GRIDFORMAT_BEGIN
 90
        0
 91
        1
 62
     0
 92
       -2
340
18D7
 93
        0
 40
0.045
309
GRIDFORMAT_END
 95
        2
302
GRIDFORMAT
  1
GRIDFORMAT_BEGIN
 90
        0
 91
        1
 62
     0
 92
       -2
340
18D7
 93
        0
 40
0.045
309
GRIDFORMAT_END
 95
        4
302
GRIDFORMAT
  1
GRIDFORMAT_BEGIN
 90
        0
 91
        1
 62
     0
 92
       -2
340
18D7
 93
        0
 40
0.045
309
GRIDFORMAT_END
 95
        8
302
GRIDFORMAT
  1
GRIDFORMAT_BEGIN
 90
        0
 91
        1
 62
     0
 92
       -2
340
18D7
 93
        0
 40
0.045
309
GRIDFORMAT_END
 95
       16
302
GRIDFORMAT
  1
GRIDFORMAT_BEGIN
 90
        0
 91
        1
 62
     0
 92
       -2
340
18D7
 93
        0
 40
0.045
309
GRIDFORMAT_END
 95
       32
302
GRIDFORMAT
  1
GRIDFORMAT_BEGIN
 90
        0
 91
        1
 62
     0
 92
       -2
340
18D7
 93
        0
 40
0.045
309
GRIDFORMAT_END
309
TABLEFORMAT_END
  1
CELLSTYLE_BEGIN
 90
        1
 91
        1
300
_TITLE
309
CELLSTYLE_END
300
CELLSTYLE
  1
TABLEFORMAT_BEGIN
 90
        5
170
     1
 91
        0
 92
        0
 62
   257
 93
        1
300
CONTENTFORMAT
  1
CONTENTFORMAT_BEGIN
 90
        0
 91
        0
 92
        4
 93
        0
300

 40
0.0
140
1.0
 94
        5
 62
     0
340
18D5
144
0.18
309
CONTENTFORMAT_END
171
     1
301
MARGIN
  1
CELLMARGIN_BEGIN
 40
0.06
 40
0.06
 40
0.06
 40
0.06
 40
0.06
 40
0.06
309
CELLMARGIN_END
 94
        6
 95
        1
302
GRIDFORMAT
  1
GRIDFORMAT_BEGIN
 90
        0
 91
        1
 62
     0
 92
       -2
340
18D7
 93
        0
 40
0.045
309
GRIDFORMAT_END
 95
        2
302
GRIDFORMAT
  1
GRIDFORMAT_BEGIN
 90
        0
 91
        1
 62
     0
 92
       -2
340
18D7
 93
        0
 40
0.045
309
GRIDFORMAT_END
 95
        4
302
GRIDFORMAT
  1
GRIDFORMAT_BEGIN
 90
        0
 91
        1
 62
     0
 92
       -2
340
18D7
 93
        0
 40
0.045
309
GRIDFORMAT_END
 95
        8
302
GRIDFORMAT
  1
GRIDFORMAT_BEGIN
 90
        0
 91
        1
 62
     0
 92
       -2
340
18D7
 93
        0
 40
0.045
309
GRIDFORMAT_END
 95
       16
302
GRIDFORMAT
  1
GRIDFORMAT_BEGIN
 90
        0
 91
        1
 62
     0
 92
       -2
340
18D7
 93
        0
 40
0.045
309
GRIDFORMAT_END
 95
       32
302
GRIDFORMAT
  1
GRIDFORMAT_BEGIN
 90
        0
 91
        1
 62
     0
 92
       -2
340
18D7
 93
        0
 40
0.045
309
GRIDFORMAT_END
309
TABLEFORMAT_END
  1
CELLSTYLE_BEGIN
 90
        2
 91
        1
300
_HEADER
309
CELLSTYLE_END
300
CELLSTYLE
  1
TABLEFORMAT_BEGIN
 90
        5
170
     1
 91
        0
 92
        0
 62
   257
 93
        1
300
CONTENTFORMAT
  1
CONTENTFORMAT_BEGIN
 90
        0
 91
        0
 92
        4
 93
        0
300

 40
0.0
140
1.0
 94
        2
 62
     0
340
18D5
144
0.18
309
CONTENTFORMAT_END
171
     1
301
MARGIN
  1
CELLMARGIN_BEGIN
 40
0.06
 40
0.06
 40
0.06
 40
0.06
 40
0.06
 40
0.06
309
CELLMARGIN_END
 94
        6
 95
        1
302
GRIDFORMAT
  1
GRIDFORMAT_BEGIN
 90
        0
 91
        1
 62
     0
 92
       -2
340
18D7
 93
        0
 40
0.045
309
GRIDFORMAT_END
 95
        2
302
GRIDFORMAT
  1
GRIDFORMAT_BEGIN
 90
        0
 91
        1
 62
     0
 92
       -2
340
18D7
 93
        0
 40
0.045
309
GRIDFORMAT_END
 95
        4
302
GRIDFORMAT
  1
GRIDFORMAT_BEGIN
 90
        0
 91
        1
 62
     0
 92
       -2
340
18D7
 93
        0
 40
0.045
309
GRIDFORMAT_END
 95
        8
302
GRIDFORMAT
  1
GRIDFORMAT_BEGIN
 90
        0
 91
        1
 62
     0
 92
       -2
340
18D7
 93
        0
 40
0.045
309
GRIDFORMAT_END
 95
       16
302
GRIDFORMAT
  1
GRIDFORMAT_BEGIN
 90
        0
 91
        1
 62
     0
 92
       -2
340
18D7
 93
        0
 40
0.045
309
GRIDFORMAT_END
 95
       32
302
GRIDFORMAT
  1
GRIDFORMAT_BEGIN
 90
        0
 91
        1
 62
     0
 92
       -2
340
18D7
 93
        0
 40
0.045
309
GRIDFORMAT_END
309
TABLEFORMAT_END
  1
CELLSTYLE_BEGIN
 90
        3
 91
        2
300
_DATA
309
CELLSTYLE_END
  0
ENDSEC
  0
EOF
